Торрент страховщик


Скачать торрент Страховщик / Automata (2014) BDRip 1080p | US-Transfer

Информация о фильмеНазвание: СтраховщикОригинальное название: AutomataГод выпуска: 2014Жанр: фантастика, триллерВыпущено: Испания, Болгария, Green Moon, Nu Boyana ViburnoРежиссер: Габе ИбаньесВ ролях: Антонио Бандерас, Биргитта Йорт Сёренсен, Мелани Гриффит, Дилан МакДермотт, Роберт Форстер, Тим МакИннерни, Энди Найман, Дэвид Райалл, Эндрю Тирнан, Криста Кэмпбелл

О фильме: Главным героем фильма — страховой агент компании по изготовлению роботов Жак Вокан, который обнаруживает, что изобретаемые роботы создаются не для эксплуатации, а для истребления.

Выпущено: Испания, БолгарияПродолжительность: 01:49:54Перевод: Дублированный + Оригинал

ФайлКодек: x264Качество: BDRip 1080pВидео: 1920x812, 9215 Kbps, 23.976 fpsАудио #1: AC-3, 6 ch, 448 kbps (Rus)Аудио #2: AC-3, 6 ch, 448 kbps (Eng)Субтитры: русские (полные, форсированные), английские

MI

x264 [info]: frame I:1297 Avg QP:15.93 size:201205 x264 [info]: frame P:30246 Avg QP:18.68 size: 95610 x264 [info]: frame B:126559 Avg QP:20.41 size: 35110Общее Уникальный идентификатор : 246437333056972238966107141545096557046 (0xB9661A9A2B50CAF4BE907B42D042B1F6) Полное имя : Страховщик.2014.BDRip.1080p.Rus.Eng.mkv Формат : Matroska Версия формата : Version 2 Размер файла : 7,76 Гбайт Продолжительность : 1 ч. 49 м. Общий поток : 10,1 Мбит/сек Название фильма : Страховщик.2014 Дата кодирования : UTC 2014-12-17 16:30:34 Программа кодирования : mkvmerge v5.8.0 ('No Sleep / Pillow') built on Sep 2 2012 15:37:04 Библиотека кодирования : libebml v1.2.3 + libmatroska v1.3.0 Attachements : Cover.png

Видео Идентификатор : 1 Формат : AVC Формат/Информация : Advanced Video Codec Профиль формата : High@L4.1 Параметр CABAC формата : Да Параметр ReFrames формата : 5 кадров Идентификатор кодека : V_MPEG4/ISO/AVC Продолжительность : 1 ч. 49 м. Битрейт : 9215 Кбит/сек Ширина : 1920 пикселей Высота : 812 пикселей Соотношение сторон : 2,35:1 Режим частоты кадров : Постоянный Частота кадров : 23,976 кадра/сек Цветовое пространство : YUV Субдискретизация насыщенности : 4:2:0 Битовая глубина : 8 бит Тип развёртки : Прогрессивная Бит/(Пиксели*Кадры) : 0.247 Размер потока : 6,92 Гбайт (89%) Заголовок : Rip by Boriy Библиотека кодирования : x264 core 142 r2491 24e4fed Настройки программы : cabac=1 / ref=5 / deblock=1:-3:-3 / analyse=0x3:0x113 / me=umh / subme=11 / psy=1 / psy_rd=1.00:0.00 / mixed_ref=1 / me_range=32 / chroma_me=1 / trellis=2 / 8x8dct=1 / cqm=0 / deadzone=21,11 / fast_pskip=0 / chroma_qp_offset=-2 / threads=12 / lookahead_threads=2 / sliced_threads=0 / nr=0 / decimate=0 / interlaced=0 / bluray_compat=0 / constrained_intra=0 / bframes=9 / b_pyramid=2 / b_adapt=2 / b_bias=0 / direct=3 / weightb=1 / open_gop=0 / weightp=2 / keyint=240 / keyint_min=23 / scenecut=40 / intra_refresh=0 / rc=2pass / mbtree=0 / bitrate=9215 / ratetol=1.0 / qcomp=0.60 / qpmin=0 / qpmax=69 / qpstep=4 / cplxblur=20.0 / qblur=0.5 / ip_ratio=1.40 / pb_ratio=1.30 / aq=1:1.00 Язык : English Default : Да Forced : Нет

Аудио #1 Идентификатор : 2 Формат : AC-3 Формат/Информация : Audio Coding 3 Расширение режима : CM (complete main) Параметр Endianness формата : Big Идентификатор кодека : A_AC3 Продолжительность : 1 ч. 49 м. Вид битрейта : Постоянный Битрейт : 448 Кбит/сек Каналы : 6 каналов Расположение каналов : Front: L C R, Side: L R, LFE Частота : 48,0 КГц Битовая глубина : 16 бит Метод сжатия : С потерями Размер потока : 352 Мбайт (4%) Заголовок : Дубляж Язык : Russian Default : Да Forced : Нет

Аудио #2 Идентификатор : 3 Формат : AC-3 Формат/Информация : Audio Coding 3 Расширение режима : CM (complete main) Параметр Endianness формата : Big Идентификатор кодека : A_AC3 Продолжительность : 1 ч. 49 м. Вид битрейта : Постоянный Битрейт : 448 Кбит/сек Каналы : 6 каналов Расположение каналов : Front: L C R, Side: L R, LFE Частота : 48,0 КГц Битовая глубина : 16 бит Метод сжатия : С потерями Размер потока : 352 Мбайт (4%) Заголовок : Оригинал Язык : English Default : Нет Forced : Нет

Текст #1 Идентификатор : 4 Формат : UTF-8 Идентификатор кодека : S_TEXT/UTF8 Идентификатор кодека/Информация : UTF-8 Plain Text Заголовок : Forced Язык : Russian Default : Да Forced : Да

Текст #2 Идентификатор : 5 Формат : UTF-8 Идентификатор кодека : S_TEXT/UTF8 Идентификатор кодека/Информация : UTF-8 Plain Text Заголовок : Full Язык : Russian Default : Нет Forced : Нет

Текст #3 Идентификатор : 6 Формат : UTF-8 Идентификатор кодека : S_TEXT/UTF8 Идентификатор кодека/Информация : UTF-8 Plain Text Заголовок : Full Язык : English Default : Нет Forced : Нет

Меню 00:00:00.000 : :1. Automata 00:09:40.454 : :2. Pilgrim 7000 00:18:46.917 : :3. The Second Protocol 00:28:32.836 : :4. Down Form The Tree 00:39:07.094 : :5. Clocksmith 00:47:33.475 : :6. A Safer Place 00:56:55.954 : :7. Human Business 01:06:05.503 : :8. The Ninth Day 01:17:27.809 : :9. The First One 01:26:11.958 : :10. Family Reunion 01:34:06.474 : :11. Just a Machine 01:44:53.412 : :12. End Credits

krutor.org

Скачать фильм Страховщик (2014) через торрент

25 февраля 2016 06:59 Страховщик / Automata (2014) BDRemux 1080i от ExKinoRay | Rus Transfer | D | Лицензия .torrent   [Информация о файле (нажмите для просмотра)] Качество: Blu-Ray Remux (1080i)Видео: MPEG-4 AVC, 22029 Кбит/с, 1920x1080, 25 кадр/сАудио: Русский (АС3, 6 ch, 640 Кбит/с), (DTS, 6 ch, 1509 Кбит/с)Перевод: ДублированныйВидео: Идентификатор : 1 Формат : AVC Формат/Информация : Advanced Video Codec Профиль формата : High@L4.1 Параметр CABAC формата : Да Параметр ReFrames формата : 4 кадра Параметр GOP формата : M=3, N=25 Идентификатор кодека : V_MPEG4/ISO/AVC Продолжительность : 1 ч. 45 м. Вид битрейта : Переменный Битрейт : 21,6 Мбит/сек Максимальный битрейт : 35,0 Мбит/сек Ширина : 1920 пикселей Высота : 1080 пикселей Соотношение сторон : 16:9 Режим частоты кадров : Постоянный Частота кадров : 25,000 кадров/сек Стандарт вещания : PAL Цветовое пространство : YUV Субдискретизация насыщенности : 4:2:0 Битовая глубина : 8 бит Тип развёртки : Чересстрочная Порядок развёртки : Верхнее поле первое Бит/(Пиксели*Кадры) : 0.416 Размер потока : 15,9 Гбайт (89%) Default : Да Forced : Нет Основные цвета : BT.709 Характеристики трансфера : BT.709 Коэффициенты матрицы : BT.709Аудио #1: Идентификатор : 2 Формат : AC-3 Формат/Информация : Audio Coding 3 Расширение режима : CM (complete main) Параметр Endianness формата : Big Идентификатор кодека : A_AC3 Продолжительность : 1 ч. 45 м. Вид битрейта : Постоянный Битрейт : 640 Кбит/сек Каналы : 6 каналов Расположение каналов : Front: L C R, Side: L R, LFE Частота : 48,0 КГц Битовая глубина : 16 бит Метод сжатия : С потерями Размер потока : 482 Мбайт (3%) Заголовок : Дублированный (Лицензия) Язык : Russian Default : Да Forced : НетАудио #2: Идентификатор : 3 Формат : DTS Формат/Информация : Digital Theater Systems Режим : 16 Параметр Endianness формата : Big Идентификатор кодека : A_DTS Продолжительность : 1 ч. 45 м. Вид битрейта : Постоянный Битрейт : 1510 Кбит/сек Каналы : 6 каналов Расположение каналов : Front: L C R, Side: L R, LFE Частота : 48,0 КГц Битовая глубина : 24 бит Метод сжатия : С потерями Размер потока : 1,11 Гбайт (6%) Заголовок : Дублированный (Лицензия) Язык : Russian Default : Нет Forced : Нет 17,8 Gb 11 6 25 февраля 2016 06:58 Страховщик / Automata (2014) BDRip 1080p от 0ptimus | RUS Transfer | D, A .torrent   [Информация о файле (нажмите для просмотра)] Перевод: Дублированный, авторскийКодек: h.264Качество: BDRip 1080pВидео: 9732 Кбит/с, 1920x812, 25.000 кадр/сЗвук: • №1: Русский (АС3, 6 ch, 640 Кбит/с) Дублированный • №2: Русский (АС3, 6 ch, 640 Кбит/с) Авторский [Сергей Визгунов] • №3: Русский (АС3, 6 ch, 640 Кбит/с) Авторский [Дмитрий Есарев, ненормативная лексика] • №4: Английский (АС3, 6 ch, 640 Кбит/с)Субтитры: Русские, английские (обычные, SDH)Видео: Идентификатор : 1 Формат : AVC Формат/Информация : Advanced Video Codec Профиль формата : High@L4.1 Параметр CABAC формата : Да Параметр ReFrames формата : 4 кадра Идентификатор кодека : V_MPEG4/ISO/AVC Продолжительность : 1 ч. 45 м. Битрейт : 9732 Кбит/сек Ширина : 1920 пикселей Высота : 812 пикселей Соотношение сторон : 2,35:1 Режим частоты кадров : Постоянный Частота кадров : 25,000 кадров/сек Цветовое пространство : YUV Субдискретизация насыщенности : 4:2:0 Битовая глубина : 8 бит Тип развёртки : Прогрессивная Бит/(Пиксели*Кадры) : 0.250 Размер потока : 6,99 Гбайт (77%) Заголовок : Rip by 0ptimus Библиотека кодирования : x264 core 133 r2334 a3ac64b Настройки программы : cabac=1 / ref=4 / deblock=1:-3:-3 / analyse=0x3:0x113 / me=umh / subme=10 / psy=1 / psy_rd=1.00:0.20 / mixed_ref=1 / me_range=32 / chroma_me=1 / trellis=2 / 8x8dct=1 / cqm=0 / deadzone=21,11 / fast_pskip=0 / chroma_qp_offset=-3 / threads=3 / lookahead_threads=1 / sliced_threads=0 / nr=0 / decimate=0 / interlaced=0 / bluray_compat=0 / constrained_intra=0 / bframes=9 / b_pyramid=2 / b_adapt=2 / b_bias=0 / direct=3 / weightb=1 / open_gop=0 / weightp=2 / keyint=250 / keyint_min=25 / scenecut=40 / intra_refresh=0 / rc_lookahead=40 / rc=2pass / mbtree=0 / bitrate=9732 / ratetol=1.0 / qcomp=0.60 / qpmin=0 / qpmax=69 / qpstep=4 / cplxblur=20.0 / qblur=0.5 / vbv_maxrate=50000 / vbv_bufsize=62500 / nal_hrd=none / ip_ratio=1.40 / pb_ratio=1.30 / aq=1:1.00 Язык : English Default : Да Forced : ДаАудио #1: Идентификатор : 2 Формат : AC-3 Формат/Информация : Audio Coding 3 Расширение режима : CM (complete main) Параметр Endianness формата : Big Идентификатор кодека : A_AC3 Продолжительность : 1 ч. 45 м. Вид битрейта : Постоянный Битрейт : 640 Кбит/сек Каналы : 6 каналов Расположение каналов : Front: L C R, Side: L R, LFE Частота : 48,0 КГц Битовая глубина : 16 бит Метод сжатия : С потерями Размер потока : 482 Мбайт (5%) Заголовок : Дублированный AC3 5.1 @ 640 kbps Язык : Russian Default : Да Forced : ДаАудио #2: Идентификатор : 3 Формат : AC-3 Формат/Информация : Audio Coding 3 Расширение режима : CM (complete main) Параметр Endianness формата : Big Идентификатор кодека : A_AC3 Продолжительность : 1 ч. 45 м. Вид битрейта : Постоянный Битрейт : 640 Кбит/сек Каналы : 6 каналов Расположение каналов : Front: L C R, Side: L R, LFE Частота : 48,0 КГц Битовая глубина : 16 бит Метод сжатия : С потерями Размер потока : 482 Мбайт (5%) Заголовок : Авторский [Сергей Визгунов] AC3 5.1 @ 640 kbps Язык : Russian Default : Нет Forced : НетАудио #3: Идентификатор : 4 Формат : AC-3 Формат/Информация : Audio Coding 3 Расширение режима : CM (complete main) Параметр Endianness формата : Big Идентификатор кодека : A_AC3 Продолжительность : 1 ч. 45 м. Вид битрейта : Постоянный Битрейт : 640 Кбит/сек Каналы : 6 каналов Расположение каналов : Front: L C R, Side: L R, LFE Частота : 48,0 КГц Битовая глубина : 16 бит Метод сжатия : С потерями Размер потока : 482 Мбайт (5%) Заголовок : Авторский [Дмитрий Есарев, ненорматив] AC3 5.1 @ 640 kbps Язык : Russian Default : Нет Forced : НетАудио #4: Идентификатор : 5 Формат : AC-3 Формат/Информация : Audio Coding 3 Расширение режима : CM (complete main) Параметр Endianness формата : Big Идентификатор кодека : A_AC3 Продолжительность : 1 ч. 45 м. Вид битрейта : Постоянный Битрейт : 640 Кбит/сек Каналы : 6 каналов Расположение каналов : Front: L C R, Side: L R, LFE Частота : 48,0 КГц Битовая глубина : 16 бит Метод сжатия : С потерями Размер потока : 482 Мбайт (5%) Заголовок : AC3 5.1 @ 640 kbps Язык : English Default : Нет Forced : Нет 9,05 Gb 46 10 25 февраля 2016 06:58 Страховщик / Automata (2014) BDRip 720p от KinoGadget | iPad .torrent   [Информация о файле (нажмите для просмотра)] Перевод: ДублированныйКачество: BDRip 720pФормат: mp4 1,63 Gb 21 6 25 февраля 2016 06:58 Страховщик / Automata (2014) BDRip 720p от 0ptimus | RUS Transfer | D, A .torrent   [Информация о файле (нажмите для просмотра)] Перевод: Дублированный, авторскийКодек: h.264Качество: BDRip 720pВидео: 3141 Кбит/с, 1280x542, 25.000 кадр/сЗвук: • №1: Русский (АС3, 6 ch, 640 Кбит/с) Дублированный • №2: Русский (АС3, 6 ch, 640 Кбит/с) Авторский [Сергей Визгунов] • №3: Русский (АС3, 6 ch, 640 Кбит/с) Авторский [Дмитрий Есарев, ненормативная лексика] • №4: Английский (АС3, 6 ch, 640 Кбит/с)Субтитры: Русские, английские (обычные, SDH)Видео: Идентификатор : 1 Формат : AVC Формат/Информация : Advanced Video Codec Профиль формата : High@L4.1 Параметр CABAC формата : Да Параметр ReFrames формата : 8 кадров Идентификатор кодека : V_MPEG4/ISO/AVC Продолжительность : 1 ч. 45 м. Битрейт : 3141 Кбит/сек Ширина : 1280 пикселей Высота : 542 пикселя Соотношение сторон : 2,35:1 Режим частоты кадров : Постоянный Частота кадров : 25,000 кадров/сек Цветовое пространство : YUV Субдискретизация насыщенности : 4:2:0 Битовая глубина : 8 бит Тип развёртки : Прогрессивная Бит/(Пиксели*Кадры) : 0.181 Размер потока : 2,23 Гбайт (53%) Заголовок : Rip by 0ptimus Библиотека кодирования : x264 core 133 r2334 a3ac64b Настройки программы : cabac=1 / ref=8 / deblock=1:-3:-3 / analyse=0x3:0x113 / me=umh / subme=10 / psy=1 / psy_rd=1.00:0.20 / mixed_ref=1 / me_range=32 / chroma_me=1 / trellis=2 / 8x8dct=1 / cqm=0 / deadzone=21,11 / fast_pskip=0 / chroma_qp_offset=-3 / threads=3 / lookahead_threads=1 / sliced_threads=0 / nr=0 / decimate=0 / interlaced=0 / bluray_compat=0 / constrained_intra=0 / bframes=11 / b_pyramid=2 / b_adapt=2 / b_bias=0 / direct=3 / weightb=1 / open_gop=0 / weightp=2 / keyint=250 / keyint_min=25 / scenecut=40 / intra_refresh=0 / rc_lookahead=40 / rc=2pass / mbtree=0 / bitrate=3141 / ratetol=1.0 / qcomp=0.60 / qpmin=0 / qpmax=69 / qpstep=4 / cplxblur=20.0 / qblur=0.5 / vbv_maxrate=50000 / vbv_bufsize=50000 / nal_hrd=none / ip_ratio=1.40 / pb_ratio=1.30 / aq=1:1.00 Язык : English Default : Да Forced : ДаАудио #1: Идентификатор : 2 Формат : AC-3 Формат/Информация : Audio Coding 3 Расширение режима : CM (complete main) Параметр Endianness формата : Big Идентификатор кодека : A_AC3 Продолжительность : 1 ч. 45 м. Вид битрейта : Постоянный Битрейт : 640 Кбит/сек Каналы : 6 каналов Расположение каналов : Front: L C R, Side: L R, LFE Частота : 48,0 КГц Битовая глубина : 16 бит Метод сжатия : С потерями Размер потока : 482 Мбайт (11%) Заголовок : Дублированный AC3 5.1 @ 640 kbps Язык : Russian Default : Да Forced : ДаАудио #2: Идентификатор : 3 Формат : AC-3 Формат/Информация : Audio Coding 3 Расширение режима : CM (complete main) Параметр Endianness формата : Big Идентификатор кодека : A_AC3 Продолжительность : 1 ч. 45 м. Вид битрейта : Постоянный Битрейт : 640 Кбит/сек Каналы : 6 каналов Расположение каналов : Front: L C R, Side: L R, LFE Частота : 48,0 КГц Битовая глубина : 16 бит Метод сжатия : С потерями Размер потока : 482 Мбайт (11%) Заголовок : Авторский [Сергей Визгунов] AC3 5.1 @ 640 kbps Язык : Russian Default : Нет Forced : НетАудио #3: Идентификатор : 4 Формат : AC-3 Формат/Информация : Audio Coding 3 Расширение режима : CM (complete main) Параметр Endianness формата : Big Идентификатор кодека : A_AC3 Продолжительность : 1 ч. 45 м. Вид битрейта : Постоянный Битрейт : 640 Кбит/сек Каналы : 6 каналов Расположение каналов : Front: L C R, Side: L R, LFE Частота : 48,0 КГц Битовая глубина : 16 бит Метод сжатия : С потерями Размер потока : 482 Мбайт (11%) Заголовок : Авторский [Дмитрий Есарев, ненорматив] AC3 5.1 @ 640 kbps Язык : Russian Default : Нет Forced : НетАудио #4: Идентификатор : 5 Формат : AC-3 Формат/Информация : Audio Coding 3 Расширение режима : CM (complete main) Параметр Endianness формата : Big Идентификатор кодека : A_AC3 Продолжительность : 1 ч. 45 м. Вид битрейта : Постоянный Битрейт : 640 Кбит/сек Каналы : 6 каналов Расположение каналов : Front: L C R, Side: L R, LFE Частота : 48,0 КГц Битовая глубина : 16 бит Метод сжатия : С потерями Размер потока : 482 Мбайт (11%) Заголовок : AC3 5.1 @ 640 kbps Язык : English Default : Нет Forced : Нет 4,2 Gb 16 4 25 февраля 2016 06:58 Страховщик / Automata (2014) BDRip-AVC от 0ptimus | RUS Transfer | D, A .torrent   [Информация о файле (нажмите для просмотра)] Перевод: Дублированный, авторскийКодек: h.264Качество: BDRip-AVCВидео: 1480 Кбит/с, 1024x434, 25.000 кадр/сЗвук: • №1: Русский (АС3, 6 ch, 384 Кбит/с) Дублированный • №2: Русский (АС3, 6 ch, 384 Кбит/с) Авторский [Сергей Визгунов] • №3: Русский (АС3, 6 ch, 384 Кбит/с) Авторский [Дмитрий Есарев, ненормативная лексика] • №4: Английский (АС3, 6 ch, 384 Кбит/с)Звук: Русские, английские (обычные, SDH)Видео: Идентификатор : 1 Формат : AVC Формат/Информация : Advanced Video Codec Профиль формата : High@L4.1 Параметр CABAC формата : Да Параметр ReFrames формата : 9 кадров Идентификатор кодека : V_MPEG4/ISO/AVC Продолжительность : 1 ч. 45 м. Битрейт : 1480 Кбит/сек Ширина : 1024 пикселя Высота : 434 пикселя Соотношение сторон : 2,35:1 Режим частоты кадров : Постоянный Частота кадров : 25,000 кадров/сек Цветовое пространство : YUV Субдискретизация насыщенности : 4:2:0 Битовая глубина : 8 бит Тип развёртки : Прогрессивная Бит/(Пиксели*Кадры) : 0.133 Размер потока : 1,05 Гбайт (47%) Заголовок : Rip by 0ptimus Библиотека кодирования : x264 core 133 r2334 a3ac64b Настройки программы : cabac=1 / ref=9 / deblock=1:-2:-1 / analyse=0x3:0x113 / me=umh / subme=11 / psy=1 / psy_rd=1.00:0.20 / mixed_ref=1 / me_range=32 / chroma_me=1 / trellis=2 / 8x8dct=1 / cqm=0 / deadzone=21,11 / fast_pskip=0 / chroma_qp_offset=-3 / threads=3 / lookahead_threads=1 / sliced_threads=0 / nr=0 / decimate=0 / interlaced=0 / bluray_compat=0 / constrained_intra=0 / bframes=12 / b_pyramid=2 / b_adapt=2 / b_bias=0 / direct=3 / weightb=1 / open_gop=0 / weightp=2 / keyint=250 / keyint_min=25 / scenecut=40 / intra_refresh=0 / rc_lookahead=40 / rc=2pass / mbtree=0 / bitrate=1480 / ratetol=1.0 / qcomp=0.60 / qpmin=0 / qpmax=69 / qpstep=4 / cplxblur=20.0 / qblur=0.5 / vbv_maxrate=50000 / vbv_bufsize=50000 / nal_hrd=none / ip_ratio=1.40 / pb_ratio=1.30 / aq=1:1.00 Язык : English Default : Да Forced : ДаАудио #1: Идентификатор : 2 Формат : AC-3 Формат/Информация : Audio Coding 3 Расширение режима : CM (complete main) Параметр Endianness формата : Big Идентификатор кодека : A_AC3 Продолжительность : 1 ч. 45 м. Вид битрейта : Постоянный Битрейт : 384 Кбит/сек Каналы : 6 каналов Расположение каналов : Front: L C R, Side: L R, LFE Частота : 48,0 КГц Битовая глубина : 16 бит Метод сжатия : С потерями Размер потока : 289 Мбайт (13%) Заголовок : Дублированный AC3 5.1 @ 384 kbps Язык : Russian Default : Да Forced : ДаАудио #2: Идентификатор : 3 Формат : AC-3 Формат/Информация : Audio Coding 3 Расширение режима : CM (complete main) Параметр Endianness формата : Big Идентификатор кодека : A_AC3 Продолжительность : 1 ч. 45 м. Вид битрейта : Постоянный Битрейт : 384 Кбит/сек Каналы : 6 каналов Расположение каналов : Front: L C R, Side: L R, LFE Частота : 48,0 КГц Битовая глубина : 16 бит Метод сжатия : С потерями Размер потока : 289 Мбайт (13%) Заголовок : Авторский [Сергей Визгунов] AC3 5.1 @ 384 kbps Язык : Russian Default : Нет Forced : НетАудио #3: Идентификатор : 4 Формат : AC-3 Формат/Информация : Audio Coding 3 Расширение режима : CM (complete main) Параметр Endianness формата : Big Идентификатор кодека : A_AC3 Продолжительность : 1 ч. 45 м. Вид битрейта : Постоянный Битрейт : 384 Кбит/сек Каналы : 6 каналов Расположение каналов : Front: L C R, Side: L R, LFE Частота : 48,0 КГц Битовая глубина : 16 бит Метод сжатия : С потерями Размер потока : 289 Мбайт (13%) Заголовок : Авторский [Дмитрий Есарев, ненорматив] AC3 5.1 @ 384 kbps Язык : Russian Default : Нет Forced : НетАудио #4: Идентификатор : 5 Формат : AC-3 Формат/Информация : Audio Coding 3 Расширение режима : CM (complete main) Параметр Endianness формата : Big Идентификатор кодека : A_AC3 Продолжительность : 1 ч. 45 м. Вид битрейта : Постоянный Битрейт : 384 Кбит/сек Каналы : 6 каналов Расположение каналов : Front: L C R, Side: L R, LFE Частота : 48,0 КГц Битовая глубина : 16 бит Метод сжатия : С потерями Размер потока : 289 Мбайт (13%) Заголовок : AC3 5.1 @ 384 kbps Язык : English Default : Нет Forced : Нет 2,22 Gb 35 11 25 февраля 2016 06:58 Страховщик / Automata (2014) BDRip от 0ptimus | RUS Transfer | D .torrent   [Информация о файле (нажмите для просмотра)] Перевод: ДублированныйКодек: XviDКачество: BDRipВидео: 1586 Кбит/с, 720x304, 25.000 кадр/сЗвук: АС3, 6 ch, 384 Кбит/сВидео: Идентификатор : 0 Формат : MPEG-4 Visual Профиль формата : Advanced Simple@L5 Параметр BVOP формата : 1 Параметр QPel формата : Нет Параметр GMC формата : Без точки перехода Параметр матрицы формата : Выборочная Идентификатор кодека : XVID Идентификатор кодека/Подсказка : XviD Продолжительность : 1 ч. 45 м. Битрейт : 1586 Кбит/сек Ширина : 720 пикселей Высота : 304 пикселя Соотношение сторон : 2,35:1 Частота кадров : 25,000 кадров/сек Цветовое пространство : YUV Субдискретизация насыщенности : 4:2:0 Битовая глубина : 8 бит Тип развёртки : Прогрессивная Метод сжатия : С потерями Бит/(Пиксели*Кадры) : 0.290 Размер потока : 1,17 Гбайт (80%) Библиотека кодирования : XviD 64Аудио: Идентификатор : 1 Формат : AC-3 Формат/Информация : Audio Coding 3 Расширение режима : CM (complete main) Параметр Endianness формата : Big Идентификатор кодека : 2000 Продолжительность : 1 ч. 45 м. Вид битрейта : Постоянный Битрейт : 384 Кбит/сек Каналы : 6 каналов Расположение каналов : Front: L C R, Side: L R, LFE Частота : 48,0 КГц Битовая глубина : 16 бит Метод сжатия : С потерями Размер потока : 289 Мбайт (19%) Выравнивание : Разделение по промежуткам Продолжительность промежутка : 40 мс. (1,00 видеокадр) Время предзагрузки промежутка : 500 мс. 1,46 Gb 112 11 25 февраля 2016 06:58 Страховщик / Automata (2014) BDRip 720p от HELLYWOOD | US-Transfer | Лицензия .torrent   [Информация о файле (нажмите для просмотра)] Перевод: Профессиональный (полное дублирование) [лицензия BD RUS]Субтитры: Русские (полные + форс.), английские (Full, SDH)Качество: BDRip 720pФормат: MKVВидео: x.264, 1280x544 (2,35:1), 23,976 fps, 4850 Кbps, 0.291 bit/pixelАудио#1: 48 kHz, AC3 Dolby Digital, 3/2 (L,C,R,l,r) + LFE ch, 640.00 kbps |DUBАудио#2: 48 kHz, AC3 Dolby Digital, 3/2 (L,C,R,l,r) + LFE ch, 640.00 kbps |AVO - Д.ЕсаревАудио#3: 48 kHz, AC3 Dolby Digital, 3/2 (L,C,R,l,r) + LFE ch, 640.00 kbps |AVO - С.ВизгуновАудио#4: 48 kHz, AC3 Dolby Digital, 3/2 (L,C,R,l,r) + LFE ch, 640.00 kbps |ENG 5,66 Gb 39 11 25 февраля 2016 06:58 Страховщик / Automata (2014) BDRip-AVC | D | Лицензия .torrent   [Информация о файле (нажмите для просмотра)] Перевод: Профессиональный (полное дублирование)Кодек: x264Качество: BDRip-AVCВидео: 736x312 (2.35:1), 23.976 fps, x264 ~875 kbps avg, 0.159 bit/pixelЗвук: 48 kHz, AAC-HE, 2 ch, Front: L R ~72 kbps avgСубтитры: Русские (Notabenoid) + Английские (full, SDH) - (Вшитые, отключаемые / UTF-8) 746,07 Mb 31 4 25 февраля 2016 06:58 Страховщик / Automata (2014) DVD5 от New-Team | D | Сжатый .torrent   [Информация о файле (нажмите для просмотра)] Перевод: Профессиональный (полное дублирование)Кодек: MPEG2Качество: DVD5 (сжатый)Видео: PAL 16:9 (720x576) VBR ~ 5917.68 kbps avgЗвук: Русский DD 5.1 (448Kbps) 4,37 Gb 1 2 25 февраля 2016 06:58 Страховщик / Automata (2014) BDRip-AVC от HQCLUB | US Transfer | Лицензия .torrent   [Информация о файле (нажмите для просмотра)] Перевод 1: Профессиональный (полное дублирование),BD RUSПеревод 2: Авторский (одноголосый, закадровый), С. ВизгуновПеревод 3: Одноголосый (закадровый), Д. ЕсаревСубтитры: русские (полные, форсированные), английские (полные, полные SDH)Формат: MKVКачество: (источник / Blu-ray [US] Disc / 1080p)Видео: 1116x472 (2.35:1), 23.976 fps, MPEG-4 AVC, ~2999 kbps avg, 0.237 bit/pixelАудио #1: 48 kHz, AC3 Dolby Digital, 3/2 (L,C,R,l,r) + LFE ch, ~448 kbps avg (DUB)Аудио #2: 48 kHz, AC3 Dolby Digital, 3/2 (L,C,R,l,r) + LFE ch, ~448 kbps avg (ENG)Аудио #3: 48 kHz, AC3 Dolby Digital, 3/2 (L,C,R,l,r) + LFE ch, ~448 kbps avg (AVO.VIZGUNOV)(отдельно)Аудио #4: 48 kHz, AC3 Dolby Digital, 3/2 (L,C,R,l,r) + LFE ch, ~448 kbps avg (VO.ESAREV)(отдельно)Видео: Идентификатор : 1 Формат : AVC Формат/Информация : Advanced Video Codec Профиль формата : High@L4.1 Параметр CABAC формата : Да Параметр ReFrames формата : 12 кадров Идентификатор кодека : V_MPEG4/ISO/AVC Продолжительность : 1 ч. 49 м. Битрейт : 2999 Кбит/сек Ширина : 1116 пикселей Высота : 472 пикселя Соотношение сторон : 2,35:1 Режим частоты кадров : Постоянный Частота кадров : 23,976 кадра/сек Цветовое пространство : YUV Субдискретизация насыщенности : 4:2:0 Битовая глубина : 8 бит Тип развёртки : Прогрессивная Бит/(Пиксели*Кадры) : 0.237 Размер потока : 2,30 Гбайт (75%) Заголовок : Страховщик / Automata [US] (2014) BDRip-AVC by HQCLUB [Elheym] Библиотека кодирования : x264 core 142 r2491kMod 24e4fed Настройки программы : cabac=1 / ref=12 / deblock=1:-3:-2 / analyse=0x3:0x133 / me=umh / subme=11 / psy=1 / fade_compensate=0.00 / psy_rd=1.00:0.00 / mixed_ref=1 / me_range=32 / chroma_me=1 / trellis=2 / 8x8dct=1 / cqm=0 / deadzone=21,11 / fast_pskip=1 / chroma_qp_offset=-4 / threads=6 / lookahead_threads=1 / sliced_threads=0 / nr=0 / decimate=1 / interlaced=0 / bluray_compat=0 / constrained_intra=0 / fgo=0 / bframes=13 / b_pyramid=2 / b_adapt=2 / b_bias=0 / direct=1 / weightb=1 / open_gop=0 / weightp=2 / keyint=230 / keyint_min=23 / scenecut=40 / intra_refresh=0 / rc_lookahead=40 / rc=crf / mbtree=0 / crf=18.5000 / qcomp=0.70 / qpmin=0 / qpmax=69 / qpstep=4 / vbv_maxrate=50000 / vbv_bufsize=62500 / crf_max=0.0 / nal_hrd=none / filler=0 / ip_ratio=1.40 / pb_ratio=1.30 / aq=3:0.90 / zones=150894,158092,b=0.3 Язык : English Default : Да Forced : НетАудио #1: Идентификатор : 2 Формат : AC-3 Формат/Информация : Audio Coding 3 Расширение режима : CM (complete main) Параметр Endianness формата : Big Идентификатор кодека : A_AC3 Продолжительность : 1 ч. 49 м. Вид битрейта : Постоянный Битрейт : 448 Кбит/сек Каналы : 6 каналов Расположение каналов : Front: L C R, Side: L R, LFE Частота : 48,0 КГц Битовая глубина : 16 бит Метод сжатия : С потерями Размер потока : 352 Мбайт (11%) Заголовок : АС3 5.1 @ 448 kbps - Dub, BD RUS Язык : Russian Default : Нет Forced : НетАудио #2: Идентификатор : 3 Формат : AC-3 Формат/Информация : Audio Coding 3 Расширение режима : CM (complete main) Параметр Endianness формата : Big Идентификатор кодека : A_AC3 Продолжительность : 1 ч. 49 м. Вид битрейта : Постоянный Битрейт : 448 Кбит/сек Каналы : 6 каналов Расположение каналов : Front: L C R, Side: L R, LFE Частота : 48,0 КГц Битовая глубина : 16 бит Метод сжатия : С потерями Размер потока : 352 Мбайт (11%) Заголовок : АС3 5.1 @ 448 kbps - Original Язык : English Default : Нет Forced : Нет 3,05 Gb 14 5 25 февраля 2016 06:58 Страховщик / Automata (2014) BDRip от HQCLUB | US Transfer | Лицензия .torrent   [Информация о файле (нажмите для просмотра)] Перевод 1: Профессиональный (полное дублирование),BD RUSПеревод 2: Авторский (одноголосый, закадровый), С. ВизгуновПеревод 3: Одноголосый (закадровый), Д. ЕсаревСубтитры: русские (полные, форсированные), английские (полные, полные SDH)Формат: AVIКачество: BDRip (источник / Blu-ray [US] Disc / 1080p)Видео: 720x304 (2.37:1), 23.976 fps, XviD build 65 ~1938 kbps avg, 0.37 bit/pixelАудио #1: 48 kHz, AC3 Dolby Digital, 3/2 (L,C,R,l,r) + LFE ch, ~448 kbps avg (DUB)Аудио #2: 48 kHz, AC3 Dolby Digital, 3/2 (L,C,R,l,r) + LFE ch, ~448 kbps avg (ENG)Аудио #3: 48 kHz, AC3 Dolby Digital, 3/2 (L,C,R,l,r) + LFE ch, ~448 kbps avg (AVO.VIZGUNOV)(отдельно)Аудио #4: 48 kHz, AC3 Dolby Digital, 3/2 (L,C,R,l,r) + LFE ch, ~448 kbps avg (VO.ESAREV)(отдельно) 2,18 Gb 25 8 25 февраля 2016 06:58 Страховщик / Automata (2014) BDRip 1080p | US-Transfer | Лицензия .torrent   [Информация о файле (нажмите для просмотра)] Перевод: Дублированный + ОригиналКодек: x264Качество: BDRip 1080pВидео: 1920x812, 9215 Kbps, 23.976 fpsАудио #1: AC-3, 6 ch, 448 kbps (Rus)Аудио #2: AC-3, 6 ch, 448 kbps (Eng)Субтитры: русские (полные, форсированные), английскиеВидео: Идентификатор : 1 Формат : AVC Формат/Информация : Advanced Video Codec Профиль формата : High@L4.1 Параметр CABAC формата : Да Параметр ReFrames формата : 5 кадров Идентификатор кодека : V_MPEG4/ISO/AVC Продолжительность : 1 ч. 49 м. Битрейт : 9215 Кбит/сек Ширина : 1920 пикселей Высота : 812 пикселей Соотношение сторон : 2,35:1 Режим частоты кадров : Постоянный Частота кадров : 23,976 кадра/сек Цветовое пространство : YUV Субдискретизация насыщенности : 4:2:0 Битовая глубина : 8 бит Тип развёртки : Прогрессивная Бит/(Пиксели*Кадры) : 0.247 Размер потока : 6,92 Гбайт (89%) Заголовок : Rip by Boriy Библиотека кодирования : x264 core 142 r2491 24e4fed Настройки программы : cabac=1 / ref=5 / deblock=1:-3:-3 / analyse=0x3:0x113 / me=umh / subme=11 / psy=1 / psy_rd=1.00:0.00 / mixed_ref=1 / me_range=32 / chroma_me=1 / trellis=2 / 8x8dct=1 / cqm=0 / deadzone=21,11 / fast_pskip=0 / chroma_qp_offset=-2 / threads=12 / lookahead_threads=2 / sliced_threads=0 / nr=0 / decimate=0 / interlaced=0 / bluray_compat=0 / constrained_intra=0 / bframes=9 / b_pyramid=2 / b_adapt=2 / b_bias=0 / direct=3 / weightb=1 / open_gop=0 / weightp=2 / keyint=240 / keyint_min=23 / scenecut=40 / intra_refresh=0 / rc=2pass / mbtree=0 / bitrate=9215 / ratetol=1.0 / qcomp=0.60 / qpmin=0 / qpmax=69 / qpstep=4 / cplxblur=20.0 / qblur=0.5 / ip_ratio=1.40 / pb_ratio=1.30 / aq=1:1.00 Язык : English Default : Да Forced : НетАудио #1: Идентификатор : 2 Формат : AC-3 Формат/Информация : Audio Coding 3 Расширение режима : CM (complete main) Параметр Endianness формата : Big Идентификатор кодека : A_AC3 Продолжительность : 1 ч. 49 м. Вид битрейта : Постоянный Битрейт : 448 Кбит/сек Каналы : 6 каналов Расположение каналов : Front: L C R, Side: L R, LFE Частота : 48,0 КГц Битовая глубина : 16 бит Метод сжатия : С потерями Размер потока : 352 Мбайт (4%) Заголовок : Дубляж Язык : Russian Default : Да Forced : НетАудио #2: Идентификатор : 3 Формат : AC-3 Формат/Информация : Audio Coding 3 Расширение режима : CM (complete main) Параметр Endianness формата : Big Идентификатор кодека : A_AC3 Продолжительность : 1 ч. 49 м. Вид битрейта : Постоянный Битрейт : 448 Кбит/сек Каналы : 6 каналов Расположение каналов : Front: L C R, Side: L R, LFE Частота : 48,0 КГц Битовая глубина : 16 бит Метод сжатия : С потерями Размер потока : 352 Мбайт (4%) Заголовок : Оригинал Язык : English Default : Нет Forced : Нет 7,76 Gb 8 6 25 февраля 2016 06:58 Страховщик / Automata (2014) HDRip от Scarabey | Лицензия .torrent   [Информация о файле (нажмите для просмотра)] Перевод: Профессиональный (полное дублирование) - ЛицензияВидео: 688x288 (2.39:1), 23.976 fps, XviD build 73 ~811 kbps avg, 0.17 bit/pixelАудио: 48 kHz, MPEG Layer 3, 2 ch, ~128.00 kbps avg 746,13 Mb 18 14 25 февраля 2016 06:58 Страховщик / Automata (2014) HDRip от Scarabey | Лицензия .torrent   [Информация о файле (нажмите для просмотра)] Перевод: Профессиональный (полное дублирование) - ЛицензияВидео: 720x304 (2.37:1), 23.976 fps, XviD build 73 ~1493 kbps avg, 0.28 bit/pixelАудио: 48 kHz, AC3 Dolby Digital, 3/2 (L,C,R,l,r) + LFE ch, ~448 kbps 1,5 Gb 180 15 25 февраля 2016 06:58 Страховщик / Automata (2014) BDRip 1080p от Scarabey | Лицензия .torrent   [Информация о файле (нажмите для просмотра)] Перевод: Профессиональный (полное дублирование) - ЛицензияВидео: AVC, 1920x812 (2.35:1) at 23.976 fps, AVC at 9559 kbps avg, 0.268 bit/pixelАудио #1: 48 kHz, AC3 Dolby Digital, 3/2 (L,C,R,l,r) + LFE ch, ~448 kbpsАудио #2: 48 kHz, AC3 Dolby Digital, 3/2 (L,C,R,l,r) + LFE ch, ~448 kbps -оригинал 8,37 Gb 14 2 25 февраля 2016 06:58 Страховщик / Automata (2014) BDRip 720p от Hot-Film | D, A .torrent   [Информация о файле (нажмите для просмотра)] Перевод: Дублированный (профессиональный) [Лицензия]; Авторский (одноголосый) [Сергей Визгунов / Дмитрий Есарев]Качество: BDRip 720p | US TransferВидео: MPEG-4 AVC, 2037 Кбит/с, 1280х542Аудио: Русский, английский (AC3, 6 ch, 640 Кбит/с)Субтитры: Русские, английские 3,53 Gb 3 1 25 февраля 2016 06:58 Страховщик / Automata (2014) DVD9 от New-Team | D | Лицензия .torrent   [Информация о файле (нажмите для просмотра)] Перевод: Профессиональный (полное дублирование)Кодек: MPEG2Качество: DVD9Видео: PAL 16:9 (720x576) VBR ~ 6526.85 kbps avgЗвук: Русский DD 5.1 (448Kbps) 5,02 Gb 2 2 25 февраля 2016 06:58 Страховщик / Automata (2014) HDRip от ExKinoRay | Лицензия .torrent   [Информация о файле (нажмите для просмотра)] Качество: HDRipВидео: XviD, 1950 Кбит/с, 720x304, 23.976 кадр/сАудио: Русский, английский (АС3, 6 ch, 448 Кбит/с)Перевод: Дублированный (Лицензия BD Rus)Субтитры: Русские, английские 2,2 Gb 7 11 25 февраля 2016 06:58 Страховщик / Automata (2014) BDRip от Twi7ter | D | Лицензия .torrent   [Информация о файле (нажмите для просмотра)] Перевод: Дублированное [лицензия BD RUS]Субтитры: НетКачество: BDRip |исх.BluRay 1080p|Формат: AVIВидео: 720x304 (2.37:1), 23.976 fps, XviD build 50 ~1526 kbps avg, 0.29 bit/pixelАудио: 48 kHz, AC3 Dolby Digital, 3/2 (L,C,R,l,r) + LFE ch, ~384 kbps 1,47 Gb 23 2 25 февраля 2016 06:58 Страховщик / Automata (2014) BDRip 720p от Leonardo and Scarabey | Лицензия .torrent   [Информация о файле (нажмите для просмотра)] Перевод: Профессиональный (полное дублирование) ЛицензияФормат: MKVВидео кодек: MPEG-4 AVC Аудио кодек: AC3Видео: AVC, 1280x544 (2.35:1) at 23.976 fps, AVC at 3892 kbps avg, 0.233 bit/pixelАудио: AC3; 640 Kbps; CBR; 6 ch; 16 bit; DubСубтитры: Русские, английские 3,55 Gb 31 4 25 февраля 2016 06:58 Страховщик / Automata (2014) BDRip-AVC от ExKinoRay | Лицензия .torrent   [Информация о файле (нажмите для просмотра)] Качество: BDRip (AVC)Видео: MPEG-4 AVC, 1659 Кбит/с, 1024x434, 23.976 кадр/сАудио: Русский, английский (АС3, 6 ch, 448 Кбит/с)Перевод: Дублированный (Лицензия BD Rus)Субтитры: Русские, английские 1,96 Gb 3 4 25 февраля 2016 06:58 Страховщик / Automata (2014) BDRip 1080p от ExKinoRay | D | Лицензия .torrent   [Информация о файле (нажмите для просмотра)] Качество: BDRip (1080p)Видео: MPEG-4 AVC, 11111 Кбит/с, 1920x812, 23.976 кадр/сАудио: Русский (АС3, 6 ch, 640 Кбит/с), (DTS, 6 ch, 1509 Кбит/с), английский (АС3, 6 ch, 448 Кбит/с)Перевод: ДублированныйСубтитры: Русские, английскиеВидео: Идентификатор : 1 Формат : AVC Формат/Информация : Advanced Video Codec Профиль формата : High@L4.1 Параметр CABAC формата : Да Параметр ReFrames формата : 4 кадра Идентификатор кодека : V_MPEG4/ISO/AVC Продолжительность : 1 ч. 49 м. Битрейт : 11,1 Мбит/сек Ширина : 1920 пикселей Высота : 812 пикселей Соотношение сторон : 2,35:1 Режим частоты кадров : Постоянный Частота кадров : 23,976 кадра/сек Цветовое пространство : YUV Субдискретизация насыщенности : 4:2:0 Битовая глубина : 8 бит Тип развёртки : Прогрессивная Бит/(Пиксели*Кадры) : 0.297 Размер потока : 8,32 Гбайт (79%) Библиотека кодирования : x264 core 125 r2200 999b753 Настройки программы : cabac=1 / ref=4 / deblock=1:-3:-3 / analyse=0x3:0x133 / me=umh / subme=11 / psy=1 / psy_rd=1.00:0.10 / mixed_ref=1 / me_range=32 / chroma_me=1 / trellis=2 / 8x8dct=1 / cqm=0 / deadzone=21,11 / fast_pskip=1 / chroma_qp_offset=-3 / threads=12 / lookahead_threads=2 / sliced_threads=0 / nr=0 / decimate=0 / interlaced=0 / bluray_compat=0 / constrained_intra=0 / bframes=9 / b_pyramid=2 / b_adapt=2 / b_bias=0 / direct=3 / weightb=1 / open_gop=0 / weightp=2 / keyint=240 / keyint_min=23 / scenecut=40 / intra_refresh=0 / rc_lookahead=60 / rc=2pass / mbtree=1 / bitrate=11111 / ratetol=1.0 / qcomp=0.60 / qpmin=0 / qpmax=69 / qpstep=4 / cplxblur=20.0 / qblur=0.5 / ip_ratio=1.40 / aq=1:1.00 Язык : English Default : Да Forced : НетАудио #1: Идентификатор : 2 Формат : AC-3 Формат/Информация : Audio Coding 3 Расширение режима : CM (complete main) Параметр Endianness формата : Big Идентификатор кодека : A_AC3 Продолжительность : 1 ч. 49 м. Вид битрейта : Постоянный Битрейт : 640 Кбит/сек Каналы : 6 каналов Расположение каналов : Front: L C R, Side: L R, LFE Частота : 48,0 КГц Битовая глубина : 16 бит Метод сжатия : С потерями Размер потока : 503 Мбайт (5%) Заголовок : Дублированный (Лицензия BD Rus) Язык : Russian Default : Да Forced : НетАудио #2: Идентификатор : 3 Формат : DTS Формат/Информация : Digital Theater Systems Режим : 16 Параметр Endianness формата : Big Идентификатор кодека : A_DTS Продолжительность : 1 ч. 49 м. Вид битрейта : Постоянный Битрейт : 1510 Кбит/сек Каналы : 6 каналов Расположение каналов : Front: L C R, Side: L R, LFE Частота : 48,0 КГц Битовая глубина : 24 бит Метод сжатия : С потерями Размер потока : 1,16 Гбайт (11%) Заголовок : Дублированный (Лицензия BD Rus) Язык : Russian Default : Нет Forced : НетАудио #3: Идентификатор : 4 Формат : AC-3 Формат/Информация : Audio Coding 3 Расширение режима : CM (complete main) Параметр Endianness формата : Big Идентификатор кодека : A_AC3 Продолжительность : 1 ч. 49 м. Вид битрейта : Постоянный Битрейт : 448 Кбит/сек Каналы : 6 каналов Расположение каналов : Front: L C R, Side: L R, LFE Частота : 48,0 КГц Битовая глубина : 16 бит Метод сжатия : С потерями Размер потока : 352 Мбайт (3%) Язык : English Default : Нет Forced : Нет 10,53 Gb 8 6 25 февраля 2016 06:58 Страховщик / Automata (2014) BDRemux 1080р от ExKinoRay | D | Лицензия .torrent   [Информация о файле (нажмите для просмотра)] Качество: Blu-Ray Remux (1080p)Видео: MPEG-4 AVC, 18000 Кбит/с, 1920x1080, 23.976 кадр/сАудио: Русский (АС3, 6 ch, 640 Кбит/с), (DTS, 6 ch, 1509 Кбит/с), английский (АС3, 6 ch, 448 Кбит/с), (Atmos True-HD, 6 ch, 3198 Кбит/с)Перевод: ДублированныйСубтитры: Русские, английскиеВидео: Идентификатор : 1 Формат : AVC Формат/Информация : Advanced Video Codec Профиль формата : High@L4.1 Параметр CABAC формата : Да Параметр ReFrames формата : 4 кадра Идентификатор кодека : V_MPEG4/ISO/AVC Продолжительность : 1 ч. 49 м. Вид битрейта : Переменный Максимальный битрейт : 35,0 Мбит/сек Ширина : 1920 пикселей Высота : 1080 пикселей Соотношение сторон : 16:9 Режим частоты кадров : Постоянный Частота кадров : 23,976 кадра/сек Стандарт вещания : NTSC Цветовое пространство : YUV Субдискретизация насыщенности : 4:2:0 Битовая глубина : 8 бит Тип развёртки : Прогрессивная Default : Да Forced : Нет Основные цвета : BT.709 Характеристики трансфера : BT.709 Коэффициенты матрицы : BT.709Аудио #1: Идентификатор : 2 Формат : AC-3 Формат/Информация : Audio Coding 3 Расширение режима : CM (complete main) Параметр Endianness формата : Big Идентификатор кодека : A_AC3 Продолжительность : 1 ч. 49 м. Вид битрейта : Постоянный Битрейт : 640 Кбит/сек Каналы : 6 каналов Расположение каналов : Front: L C R, Side: L R, LFE Частота : 48,0 КГц Битовая глубина : 16 бит Метод сжатия : С потерями Размер потока : 503 Мбайт (3%) Заголовок : Дублированный (Лицензия BD Rus) Язык : Russian Default : Да Forced : НетАудио #2: Идентификатор : 3 Формат : DTS Формат/Информация : Digital Theater Systems Режим : 16 Параметр Endianness формата : Big Идентификатор кодека : A_DTS Продолжительность : 1 ч. 49 м. Вид битрейта : Постоянный Битрейт : 1510 Кбит/сек Каналы : 6 каналов Расположение каналов : Front: L C R, Side: L R, LFE Частота : 48,0 КГц Битовая глубина : 24 бит Метод сжатия : С потерями Размер потока : 1,16 Гбайт (6%) Заголовок : Дублированный (Лицензия BD Rus) Язык : Russian Default : Нет Forced : НетАудио #3: Идентификатор : 4 Формат : AC-3 Формат/Информация : Audio Coding 3 Расширение режима : CM (complete main) Параметр Endianness формата : Big Идентификатор кодека : A_AC3 Продолжительность : 1 ч. 49 м. Вид битрейта : Постоянный Битрейт : 448 Кбит/сек Каналы : 6 каналов Расположение каналов : Front: L C R, Side: L R, LFE Частота : 48,0 КГц Битовая глубина : 16 бит Метод сжатия : С потерями Размер потока : 352 Мбайт (2%) Язык : English Default : Нет Forced : НетАудио #4: Идентификатор : 5 Формат : TrueHD Идентификатор кодека : A_TRUEHD Продолжительность : 1 ч. 49 м. Вид битрейта : Переменный Максимальный битрейт : 4500 Кбит/сек Каналы : 6 каналов Расположение каналов : Front: L C R, Side: L R, LFE Частота : 48,0 КГц Метод сжатия : Без потерь Язык : English Default : Нет Forced : Нет 18,32 Gb 6 4 25 февраля 2016 06:58 Страховщик / Automata (2014) BDRip-AVC от HELLYWOOD | US-Transfer | Лицензия .torrent   [Информация о файле (нажмите для просмотра)] Перевод: Профессиональный (полное дублирование) [лицензия BD RUS]Субтитры: Русские (Notabenoid), английские (Full + SDH)Качество: BDRip-AVCФормат: MKVВидео: x.264, 1064x450 (2,35:1), 23,976 fps, 1943 kbps, 0.169 bit/pixelАудио#1: 48 kHz, AC3 Dolby Digital, 3/2 (L,C,R,l,r) + LFE ch, 448.00 kbps |RUSАудио#2: 48 kHz, AC3 Dolby Digital, 3/2 (L,C,R,l,r) + LFE ch, 448.00 kbps |ENG 2,18 Gb 14 3 25 февраля 2016 06:58 Страховщик / Automata (2014) Blu-Ray 1080i от HDClub | Rus Transfer | D | Лицензия .torrent   [Информация о файле (нажмите для просмотра)] Перевод: ДублированныйФормат: m2tsКачество: Blu-Ray 1080iВидео: MPEG-4 AVC, 22029 Кбит/с, 1920x1080, 23.976 кадр/сАудио: Русский (АС3, 6 ch, 640 Кбит/с), (DTS, 6 ch, 1510 Кбит/с) 19,97 Gb 4 1 25 февраля 2016 06:58 Страховщик / Automata (2014) BDRip 720p .torrent   [Информация о файле (нажмите для просмотра)] Перевод: Профессиональный (полное дублирование)iTunes Одноголосый закадровый - Дмитрий ЕсаревКодек: MKVКачество: BDRip 720pВидео: MPEG-4 AVC, 5740 Кбит/с, 1280x544, 23,976 fpsЗвук: Аудио: Rus, AC3, 384 kb/s (6 ch), 48 kHz - iTunes Аудио 2: Rus, AC3, 640 kb/s (6 ch), 48 kHz - Есарев Аудио 3: Eng, AC3, 640 kb/s (6 ch), 48 kHzСубтитры: Rus, Eng 5,8 Gb 10 2

gig-torrent.net

Скачать торрент Страховщик / Automata (2014) BDRip 1080p | US-Transfer

Информация о фильмеНазвание: СтраховщикОригинальное название: AutomataГод выпуска: 2014Жанр: фантастика, триллерВыпущено: Испания, Болгария, Green Moon, Nu Boyana ViburnoРежиссер: Габе ИбаньесВ ролях: Антонио Бандерас, Биргитта Йорт Сёренсен, Мелани Гриффит, Дилан МакДермотт, Роберт Форстер, Тим МакИннерни, Энди Найман, Дэвид Райалл, Эндрю Тирнан, Криста Кэмпбелл

О фильме: Главным героем фильма — страховой агент компании по изготовлению роботов Жак Вокан, который обнаруживает, что изобретаемые роботы создаются не для эксплуатации, а для истребления.

Выпущено: Испания, БолгарияПродолжительность: 01:49:54Перевод: Дублированный + Оригинал

ФайлКодек: x264Качество: BDRip 1080pВидео: 1920x812, 9215 Kbps, 23.976 fpsАудио #1: AC-3, 6 ch, 448 kbps (Rus)Аудио #2: AC-3, 6 ch, 448 kbps (Eng)Субтитры: русские (полные, форсированные), английские

MI

x264 [info]: frame I:1297 Avg QP:15.93 size:201205 x264 [info]: frame P:30246 Avg QP:18.68 size: 95610 x264 [info]: frame B:126559 Avg QP:20.41 size: 35110Общее Уникальный идентификатор : 246437333056972238966107141545096557046 (0xB9661A9A2B50CAF4BE907B42D042B1F6) Полное имя : Страховщик.2014.BDRip.1080p.Rus.Eng.mkv Формат : Matroska Версия формата : Version 2 Размер файла : 7,76 Гбайт Продолжительность : 1 ч. 49 м. Общий поток : 10,1 Мбит/сек Название фильма : Страховщик.2014 Дата кодирования : UTC 2014-12-17 16:30:34 Программа кодирования : mkvmerge v5.8.0 ('No Sleep / Pillow') built on Sep 2 2012 15:37:04 Библиотека кодирования : libebml v1.2.3 + libmatroska v1.3.0 Attachements : Cover.png

Видео Идентификатор : 1 Формат : AVC Формат/Информация : Advanced Video Codec Профиль формата : High@L4.1 Параметр CABAC формата : Да Параметр ReFrames формата : 5 кадров Идентификатор кодека : V_MPEG4/ISO/AVC Продолжительность : 1 ч. 49 м. Битрейт : 9215 Кбит/сек Ширина : 1920 пикселей Высота : 812 пикселей Соотношение сторон : 2,35:1 Режим частоты кадров : Постоянный Частота кадров : 23,976 кадра/сек Цветовое пространство : YUV Субдискретизация насыщенности : 4:2:0 Битовая глубина : 8 бит Тип развёртки : Прогрессивная Бит/(Пиксели*Кадры) : 0.247 Размер потока : 6,92 Гбайт (89%) Заголовок : Rip by Boriy Библиотека кодирования : x264 core 142 r2491 24e4fed Настройки программы : cabac=1 / ref=5 / deblock=1:-3:-3 / analyse=0x3:0x113 / me=umh / subme=11 / psy=1 / psy_rd=1.00:0.00 / mixed_ref=1 / me_range=32 / chroma_me=1 / trellis=2 / 8x8dct=1 / cqm=0 / deadzone=21,11 / fast_pskip=0 / chroma_qp_offset=-2 / threads=12 / lookahead_threads=2 / sliced_threads=0 / nr=0 / decimate=0 / interlaced=0 / bluray_compat=0 / constrained_intra=0 / bframes=9 / b_pyramid=2 / b_adapt=2 / b_bias=0 / direct=3 / weightb=1 / open_gop=0 / weightp=2 / keyint=240 / keyint_min=23 / scenecut=40 / intra_refresh=0 / rc=2pass / mbtree=0 / bitrate=9215 / ratetol=1.0 / qcomp=0.60 / qpmin=0 / qpmax=69 / qpstep=4 / cplxblur=20.0 / qblur=0.5 / ip_ratio=1.40 / pb_ratio=1.30 / aq=1:1.00 Язык : English Default : Да Forced : Нет

Аудио #1 Идентификатор : 2 Формат : AC-3 Формат/Информация : Audio Coding 3 Расширение режима : CM (complete main) Параметр Endianness формата : Big Идентификатор кодека : A_AC3 Продолжительность : 1 ч. 49 м. Вид битрейта : Постоянный Битрейт : 448 Кбит/сек Каналы : 6 каналов Расположение каналов : Front: L C R, Side: L R, LFE Частота : 48,0 КГц Битовая глубина : 16 бит Метод сжатия : С потерями Размер потока : 352 Мбайт (4%) Заголовок : Дубляж Язык : Russian Default : Да Forced : Нет

Аудио #2 Идентификатор : 3 Формат : AC-3 Формат/Информация : Audio Coding 3 Расширение режима : CM (complete main) Параметр Endianness формата : Big Идентификатор кодека : A_AC3 Продолжительность : 1 ч. 49 м. Вид битрейта : Постоянный Битрейт : 448 Кбит/сек Каналы : 6 каналов Расположение каналов : Front: L C R, Side: L R, LFE Частота : 48,0 КГц Битовая глубина : 16 бит Метод сжатия : С потерями Размер потока : 352 Мбайт (4%) Заголовок : Оригинал Язык : English Default : Нет Forced : Нет

Текст #1 Идентификатор : 4 Формат : UTF-8 Идентификатор кодека : S_TEXT/UTF8 Идентификатор кодека/Информация : UTF-8 Plain Text Заголовок : Forced Язык : Russian Default : Да Forced : Да

Текст #2 Идентификатор : 5 Формат : UTF-8 Идентификатор кодека : S_TEXT/UTF8 Идентификатор кодека/Информация : UTF-8 Plain Text Заголовок : Full Язык : Russian Default : Нет Forced : Нет

Текст #3 Идентификатор : 6 Формат : UTF-8 Идентификатор кодека : S_TEXT/UTF8 Идентификатор кодека/Информация : UTF-8 Plain Text Заголовок : Full Язык : English Default : Нет Forced : Нет

Меню 00:00:00.000 : :1. Automata 00:09:40.454 : :2. Pilgrim 7000 00:18:46.917 : :3. The Second Protocol 00:28:32.836 : :4. Down Form The Tree 00:39:07.094 : :5. Clocksmith 00:47:33.475 : :6. A Safer Place 00:56:55.954 : :7. Human Business 01:06:05.503 : :8. The Ninth Day 01:17:27.809 : :9. The First One 01:26:11.958 : :10. Family Reunion 01:34:06.474 : :11. Just a Machine 01:44:53.412 : :12. End Credits

mrutor.org

Страховщик / Autómata скачать фильм торрент 2014

Добавлено BDRip, HDRip, лицензия.

Коротко о фильме "Страховщик" - Главным героем фильма станет страховой агент компании по изготовлению роботов Жак Вокан, который обнаруживает, что изобретаемые роботы создаются не для эксплуатации, а для истребления.

Страховщик

Оригинальное название Autómata
Фильм выпущен: 2014
Страна (кинокомпания): Испания, Болгария
Pежиссер: Габе Ибаньес
Сценарий фильма: Габе Ибаньес, Игорь Легаррета, Хавьер Санчес Донате
Продюсер фильма: Антонио Бандерас, Сандра Эрмида, Дэнни Лернер
Оператор: Алехандро Мартинес
Композитор: Сакариас М. де ла Рива
Художники: Патрик Сальвадор, Кес Бонне, Армавени Стоянова
Монтаж: Испания, Болгария
Жанр фильма: фантастика, триллер
Премьера (мир): 20 сентября 2014
премьера (Pоссия): 16 октября 2014, Парадиз
продолжительность109 мин

В главных ролях:

Эндрю Тирнан, Дэвид Райалл, Энди Найман, Тим МакИннерни, Роберт Форстер, Дилан МакДермотт, Мелани Гриффит, Биргитта Йорт Сёренсен, Антонио Бандерас и другие ...

 

Трейлер фильма:

 

Фильм Страховщик / Autómata скачать торрент - новинка кино 2014

В фильме "Страховщик" - Джекк Вокэн, страховой агент корпорации робототехники ROC, обычно исследует способы управления роботом, однажды он обнаруживает, что наступят серьезные последствия для будущего человечества



Параметры: 25.01.2017 BDRip 1080p | US-Transfer | Лицензия, 7,76 Гб

Формат: BDRip 1080p, MKV, AC3, размер файла: 7,76 ГбВидео: 1920x812, - 9215 Кбит/сАудио: Русский: AC3, 6 каналов, 448 Кбит/с / English: AC3, 6 каналов, 448 Кбит/сПеревод (озвучивание): Дублированный + Оригинал

Параметры: 09.06.2015 BDRip 1080p от 0ptimus | RUS Transfer | D, A, 9,05 Гб

Формат: BDRip 1080p, MKV, AC3, размер файла: 9,05 ГбВидео: 1920x812, - 9732 Кбит/сАудио: Русский: AC3, 6 каналов, 640 Кбит/с / Английский: AC3, 6 каналов, 640 Кбит/сПеревод (озвучивание): Дублированный, авторский

Параметры: 31.05.2015 BDRip от 0ptimus | RUS Transfer | D, 1,46 Гб

Формат: BDRip, XviD, AC3, размер файла: 1,46 ГбВидео: 720x304, XviD - 1586 Кбит/сАудио: AC3, 6 каналов, 384 Кбит/сПеревод (озвучивание): Дублированный

Параметры: 31.05.2015 BDRip-AVC от 0ptimus | RUS Transfer | D, A, 2,22 Гб

Формат: BDRip-AVC, AC3, размер файла: 2,22 ГбВидео: 1024x434, - 1480 Кбит/сАудио: Русский: AC3, 6 каналов, 384 Кбит/с / Английский: AC3, 6 каналов, 384 Кбит/сПеревод (озвучивание): Дублированный, авторский

Параметры: 01.05.2015 BDRip 720p от HELLYWOOD | US-Transfer | Лицензия, 5,66 Гб

Формат: BDRip 720p, MKV, AC3, размер файла: 5,66 ГбВидео: 1280x544, H.264 -Аудио: AC3, 6 каналов, 640 Кбит/с::AC3, 6 каналов, 640 Кбит/с::AC3, 6 каналов, 640 Кбит/сПеревод (озвучивание): Профессиональный (полное дублирование) [лицензия BD RUS]

Параметры: 17.12.2014 HDRip от Scarabey | Лицензия, 1,50 Гб

Формат: HDRip, AVI, XviD, AC3, размер файла: 1,50 ГбВидео: 720x304, XviD - build 73 ~1493 Кбит/сАудио: AC3, 6 каналов, 448 Кбит/сПеревод (озвучивание): Профессиональный (полное дублирование) - Лицензия

Параметры: 16.12.2014 3,55 Гб -

Формат: BDRip (720p), MKV, AVC, AC3, размер файла: 3,55 ГбВидео: 1280x542, AVC - 3892 Кбит/сАудио: Русский: AC3, 6 каналов, 640 Кбит/сПеревод (озвучивание): Дублированный [Лицензия]

Параметры: 16.12.2014 BDRip 720p от Leonardo and Scarabey | Лицензия, 3,55 Гб

Формат: BDRip 720p Исходник: Blu-ray, MKV, AVC, AC3, размер файла: 3,55 ГбВидео: 1280x544, AVC - AVC at 3892 Кбит/сАудио: AC3, 6 каналов, 640 Кбит/сПеревод (озвучивание): Профессиональный (полное дублирование) Лицензия

Параметры: 16.12.2014 10,53 Гб -

Формат: BDRip (1080p), MKV, AVC, размер файла: 10,53 ГбВидео: 1920x812, AVC - 11111 Кбит/сАудио: Русский / Английский: AC3, 6 каналов, 640 Кбит/сПеревод (озвучивание): Дублированный [Лицензия]

Параметры: 16.12.2014 1,96 Гб -

Формат: BDRip (AVC), MKV, AVC, AC3, размер файла: 1,96 ГбВидео: 1024x432, AVC - 1659 Кбит/сАудио: Русский: AC3, 6 каналов, 448 Кбит/с / Английский: AC3, 6 каналов, 448 Кбит/сПеревод (озвучивание): Дублированный [Лицензия]

Смотрите фильм онлайн:

Скачать торрент файлы фильма Страховщик / Autómata: на сайте Вы можете получить ссылку на торрент файлы или скачать сами торрент файлы, в которых находится информация о местонахождении фильмов, сериалов у пользователей.

 

 

xn--h1adlsl.xn--p1ai

Скачать фильм Страховщик через торрент в хорошем качестве бесплатно BDRip

Размер: 1.47 GB | Добавлен: 2 года 11 мес. назад | Торрент скачан:3958 раз
Реклама Дарим 3000 рублей за регистрацию, не упусти свой шанс получить шикарный бонус!!!

04-11-2014 15:46 Страховщик Скачать торрент  

Страховщик / Automata

Год выпуска: 2014

Страна: Испания, Болгария

Жанр: фантастика, триллер

Продолжительность: 01:49:54

Перевод: Дублированное [лицензия] iTunes Russia

Субтитры: Нет

Режиссер: Габе Ибаньес / Gabe Ibáñez

В ролях: Антонио Бандерас (Jacq Vaucan), Биргитта Йорт Сёренсен (Rachel Vaucan), Мелани Гриффит (Dra. Dupre / Cleo, озвучка), Дилан МакДермотт (Wallace), Роберт Форстер (Robert Bold), Тим МакИннерни (Vernon Conway), Энди Найман (Ellis), Дэвид Райалл (Dominic Hawk), Эндрю Тирнан (Manager), Криста Кэмпбелл (ROC Technician), Кристина Там (Morgue Technician), Дэнни Киррейн (Muniesa Technician)

Описание:

Главным героем фильма - страховой агент компании по изготовлению роботов Жак Вокан, который обнаруживает, что изобретаемые роботы создаются не для эксплуатации, а для истребления.

MPAA: R - Лицам до 17 лет обязательно присутствие взрослого

Качество: BDRip |исх. BluRay 1080p|

Формат: AVI

Видео кодек: XviD

Аудио кодек: AC3

Видео: 720x304 (2.37:1), 23.976 fps, XviD build 50 ~1526 kbps avg, 0.29 bit/pixel

Аудио: 48 kHz, AC3 Dolby Digital, 3/2 (L,C,R,l,r) + LFE ch, ~384 kbps

Релиз: , GiperWarez

Скачать Страховщик через торрент http://img23.binimage.org/55/3c/34/fb0ce93b430febf111ca782a0c3ab3282b949370.png Скачать фильм Страховщик через торрент бесплантно в хорошем качестве Описание: Главным героем фильма - страховой агент компании по изготовлению роботов Жак Вокан, который обнаруживает, что изобретаемые роботы ... 2014-11-04 15:46 9.5 10 52

Loading...

Loading...

% Раздел Тема Автор DL S | L
Фильмы [HD 720p, 1080p] (Хороший звук DUB, MVO) [ 5.66 GB ] Страховщик / Automata [2014 BDRip 720p] [US-Transfer] DUB potroks Скачать
Фильмы с авторской озвучкой [ 2.18 GB ] Страховщик / Autómata [2014 HDRip Авторский одноголосый закадровый "С. Визгунов"] coc900 Скачать
Фильмы 2014 [DVDrip, WEB-DLRip, HDrip] [ 2.18 GB ] Страховщик / Automata [2014 BDRip Dub ] / US Transfer / Ворон Скачать
Фильмы 2014 [DVDrip, WEB-DLRip, HDrip] [ 3.05 GB ] Страховщик / Automata [2014 BDRip-AVC Dub ] / US Transfer / Ворон Скачать
Фильмы (DVD фильмы) [ 5.02 GB ] Страховщик / Automata [2014 DVD9] R5 voovaz Скачать
Фильмы [HD 720p, 1080p] (Хороший звук DUB, MVO) [ 10.62 GB ] Страховщик / Automata [2014 BDRip 1080p Dub ] Seedtank Скачать
Фильмы 2014 [DVDrip, WEB-DLRip, HDrip] [ 2.05 GB ] Страховщик / Autómata [2014 HDRip ] Neftannik Скачать

Рекламный пират

05-11-2014 12:21 Страховщик Скачать торрент  

Спасибо!Респект автору!

05-11-2014 21:15 Страховщик Скачать торрент  

А мне понравился фильм,хоть и рейтинг не очень...

12-11-2014 19:06 Страховщик Скачать торрент  

мдддда на 6 не тянет сценарий уннылллый. писец лысый бандерас порадовал только

13-11-2014 05:28 Страховщик Скачать торрент  

Фильмец так себе, проходной на один раз, под развязку конечно все пободрее и поинтереснее... Но в целом фильм не особо понравился...

Пы.Сы. Автору спасиб за хорошую раздачу))

14-11-2014 20:23 Страховщик Скачать торрент  

А мне лично понравился. Да там нету мегакрутого экшена, но все равно затягивает. Посмотрел на одном дыхании.

20-12-2014 14:59 Страховщик Скачать торрент  

с субтитрами будет

20-12-2014 15:02 Страховщик Скачать торрент  

клюв,

http://subtitry.ru/subtitles/965157300/?aut-mata

Дорогой пользователь! Огромная просьба, поблагодарите релизера, оцените раздачу и оставьте свои комментарий, если Вы скачали Страховщик через торрент бесплатно! Внесите свою лепту в развитие PiratBit!

Комментировать посты могут только пользователи прошедшие не сложную регистрацию

Страховщик через торрент Скачать бесплатно Страховщик Страховщик скачать торрент Страховщик смотреть онлайн Cкачать фильм Страховщик бесплатно Страховщик скачать торрент в хорошем качестве Страховщик смотреть онлайн бесплатно в хорошем качестве

Вы не можете начинать темыВы не можете отвечать на сообщенияВы не можете редактировать свои сообщенияВы не можете удалять свои сообщенияВы не можете голосовать в опросахВы не можете прикреплять файлы к сообщениямВы можете скачивать файлы

piratbit.ru


Смотрите также