Торрент любите куперов


Скачать торрент Любите Куперов / Love the Coopers (2015) HDRip-AVC

Информация о фильмеНазвание: Любите КуперовОригинальное название: Love the CoopersГод выхода: 2015Жанр: комедияРежиссер: Джесси НельсонВ ролях: Дайан Китон, Джон Гудман, Эд Хелмс, Алекс Борштейн, Тимоти Чаламет, Максвелл Симкинс, Блейк Баумгартнер, Аманда Сайфред, Алан Аркин, Дэн Амбойер, Мариса Томей, Дороти Сильвер

О фильме:Феерическая рождественская комедия о том, что бывает, когда на праздник собираются представители четырех поколений одной большой семьи…

Страна: СШАСтудия: CBS Films, Groundswell Productions, Imagine EntertainmentПродолжительность: 01:47:06Перевод: Дублированный

ФайлКодек: x264Качество: HDRip-AVC (исх. BDRip 1080p)Видео: 720x304 (2.35:1), 23,976 fps, x264 ~910 kbps avg, 0.173 bit/pixelЗвук: 48 kHz, Advanced Audio Codec, 2 ch, Front: L R, ~64 kbps avgСубтитры: Отсутствуют

MediaInfo

Формат : Matroska Версия формата : Version 4 / Version 2 Размер файла : 746 Мбайт Продолжительность : 1 ч. 47 м. Общий поток : 974 Кбит/сек Название фильма : Love the Coopers by sergey07 Дата кодирования : UTC 2016-02-29 16:24:43 Программа кодирования : mkvmerge v7.6.0 ('Garden of Dreams') 64bit built on Feb 8 2015 13:04:34 Библиотека кодирования : libebml v1.3.1 + libmatroska v1.4.2 DURATION : 01:47:05.430000000 NUMBER_OF_FRAMES : 150596 NUMBER_OF_BYTES : 50349263 _STATISTICS_WRITING_APP : mkvmerge v7.6.0 ('Garden of Dreams') 64bit built on Feb 8 2015 13:04:34 _STATISTICS_WRITING_DATE_UTC : 2016-02-29 16:24:43 _STATISTICS_TAGS : BPS DURATION NUMBER_OF_FRAMES NUMBER_OF_BYTES

Видео Идентификатор : 1 Формат : AVC Формат/Информация : Advanced Video Codec Профиль формата : High@L4.1 Параметр CABAC формата : Да Параметр ReFrames формата : 14 кадров Идентификатор кодека : V_MPEG4/ISO/AVC Продолжительность : 1 ч. 47 м. Номинальный битрейт : 910 Кбит/сек Ширина : 720 пикселей Высота : 304 пикселя Соотношение сторон : 2,35:1 Режим частоты кадров : Постоянный Частота кадров : 23,976 кадра/сек Цветовое пространство : YUV Субдискретизация насыщенности : 4:2:0 Битовая глубина : 8 бит Тип развёртки : Прогрессивная Бит/(Пиксели*Кадры) : 0.173 Библиотека кодирования : x264 core 142 r2431 ac76440 Настройки программы : cabac=1 / ref=14 / deblock=1:-1:-1 / analyse=0x3:0x113 / me=umh / subme=10 / psy=1 / psy_rd=1.00:0.00 / mixed_ref=1 / me_range=32 / chroma_me=1 / trellis=2 / 8x8dct=1 / cqm=0 / deadzone=21,11 / fast_pskip=1 / chroma_qp_offset=-4 / threads=12 / lookahead_threads=2 / sliced_threads=0 / nr=0 / decimate=1 / interlaced=0 / bluray_compat=0 / constrained_intra=0 / bframes=11 / b_pyramid=2 / b_adapt=2 / b_bias=0 / direct=1 / weightb=1 / open_gop=0 / weightp=2 / keyint=240 / keyint_min=23 / scenecut=40 / intra_refresh=0 / rc_lookahead=40 / rc=2pass / mbtree=1 / bitrate=910 / ratetol=1.0 / qcomp=0.70 / qpmin=1 / qpmax=69 / qpstep=4 / cplxblur=20.0 / qblur=0.5 / vbv_maxrate=50000 / vbv_bufsize=62500 / nal_hrd=none / filler=0 / ip_ratio=1.40 / aq=1:1.00 Язык : English Default : Да Forced : Нет

Аудио Идентификатор : 2 Формат : AAC Формат/Информация : Advanced Audio Codec Профиль формата : HE-AAC / LC Идентификатор кодека : A_AAC Продолжительность : 1 ч. 47 м. Каналы : 2 канала Расположение каналов : Front: L R Частота : 48,0 КГц / 24,0 КГц Метод сжатия : С потерями Заголовок : Дубляж (aac, 48000 Hz, 2.0, 64 kb/s) Язык : Russian Default : Да Forced : Нет

x264 log

x264 [info]: using SAR=1/1 x264 [info]: using cpu capabilities: MMX2 SSE2Fast SSSE3 SSE4.2 AVX AVX2 FMA3 LZCNT BMI2 x264 [info]: profile High, level 4.1 x264 [info]: frame I:1561 Avg QP:15.84 size: 39869 x264 [info]: frame P:36758 Avg QP:19.59 size: 10113 x264 [info]: frame B:115762 Avg QP:23.22 size: 2564 x264 [info]: consecutive B-frames: 2.6% 3.4% 9.0% 35.5% 19.9% 24.3% 3.3% 1.0% 0.5% 0.2% 0.1% 0.1% x264 [info]: mb I I16..4: 5.2% 60.9% 33.9% x264 [info]: mb P I16..4: 0.8% 5.5% 1.5% P16..4: 37.4% 27.5% 17.3% 0.0% 0.0% skip: 9.8% x264 [info]: mb B I16..4: 0.1% 0.4% 0.1% B16..8: 38.2% 10.2% 3.5% direct: 4.0% skip:43.5% L0:40.6% L1:43.6% BI:15.8% x264 [info]: 8x8 transform intra:67.0% inter:56.8% x264 [info]: coded y,uvDC,uvAC intra: 82.9% 85.2% 66.7% inter: 17.7% 13.3% 4.4% x264 [info]: i16 v,h,dc,p: 36% 15% 6% 43% x264 [info]: i8 v,h,dc,ddl,ddr,vr,hd,vl,hu: 15% 10% 7% 8% 12% 13% 12% 12% 12% x264 [info]: i4 v,h,dc,ddl,ddr,vr,hd,vl,hu: 13% 10% 4% 9% 14% 14% 13% 11% 13% x264 [info]: i8c dc,h,v,p: 42% 22% 22% 14% x264 [info]: Weighted P-Frames: Y:2.2% UV:0.6% x264 [info]: ref P L0: 51.3% 14.4% 12.4% 5.5% 3.6% 3.1% 2.4% 1.5% 1.3% 1.1% 0.9% 0.9% 0.7% 0.9% 0.1% 0.0% x264 [info]: ref B L0: 78.8% 8.7% 4.5% 1.9% 1.9% 1.0% 1.0% 0.5% 0.6% 0.4% 0.4% 0.2% 0.1% x264 [info]: ref B L1: 92.9% 7.1% x264 [info]: kb/s:909.74

Релиз от:

mrutor.org

Скачать торрент Любите Куперов / Love the Coopers (2015) BDRip 720p

Информация о фильмеНазвание: Любите КуперовОригинальное название: Love the CoopersГод выхода: 2015Жанр: комедияРежиссер: Джесси НельсонВ ролях: Дайан Китон, Джон Гудман, Эд Хелмс, Алекс Борштейн, Тимоти Чаламет, Максвелл Симкинс, Блейк Баумгартнер, Аманда Сайфред, Алан Аркин, Дэн Амбойер

О фильме: Феерическая рождественская комедия о том, что бывает, когда на праздник собираются представители четырех поколений одной большой семьи...

Страна: СШАСтудия: CBS Films, Groundswell Productions, Imagine EntertainmentПродолжительность: 01:47:06Перевод: Профессиональный (дублированный) Blu-ray RUS

Релиз:

ФайлФормат: MatroskaВидео: 1280x534 at 23.976 fps, [email protected], ~5000 kbps avgAудио#1: Russian: 48 kHz, DTS, 3/2 (L,C,R,l,r) + LFE ch, ~1509.00 kbps avg |Дубляж, Blu-Ray RUS|Aудио#2: English: 48 kHz, DTS, 3/2 (L,C,R,l,r) + LFE ch, ~1509.00 kbps avgСубтитры: English, English (SDH)

***Сохранены оригинальные главы как на Blu-ray.

MI

Общее Уникальный идентификатор : 232041745156970248373791119621594275183 (0xAE919D5223303162BD2FE5DCEDABDD6F) Полное имя : Love.the.Coopers.2015.720p.BluRay.Rus.Eng.HDCLUB.mkv Формат : Matroska Версия формата : Version 2 Размер файла : 6,04 Гбайт Продолжительность : 1 ч. 47 м. Общий поток : 8068 Кбит/сек Название фильма : Love the Coopers (2015) - Release for HDCLUB Дата кодирования : UTC 2016-02-27 21:08:14 Программа кодирования : mkvmerge v5.7.0 ('The Whirlwind') built on Jul 8 2012 20:08:51 Библиотека кодирования : libebml v1.2.3 + libmatroska v1.3.0

Видео Идентификатор : 1 Формат : AVC Формат/Информация : Advanced Video Codec Профиль формата : High@L4.1 Параметр CABAC формата : Да Параметр ReFrames формата : 12 кадров Идентификатор кодека : V_MPEG4/ISO/AVC Продолжительность : 1 ч. 47 м. Битрейт : 4889 Кбит/сек Ширина : 1280 пикселей Высота : 534 пикселя Соотношение сторон : 2,40:1 Режим частоты кадров : Постоянный Частота кадров : 23,976 кадра/сек Цветовое пространство : YUV Субдискретизация насыщенности : 4:2:0 Битовая глубина : 8 бит Тип развёртки : Прогрессивная Бит/(Пиксели*Кадры) : 0.298 Размер потока : 3,66 Гбайт (61%) Библиотека кодирования : x264 core 148 r2638 7599210 Настройки программы : cabac=1 / ref=12 / deblock=1:-3:-3 / analyse=0x3:0x133 / me=umh / subme=10 / psy=1 / psy_rd=1.00:0.00 / mixed_ref=1 / me_range=48 / chroma_me=1 / trellis=2 / 8x8dct=1 / cqm=0 / deadzone=21,11 / fast_pskip=1 / chroma_qp_offset=-2 / threads=8 / lookahead_threads=2 / sliced_threads=0 / nr=0 / decimate=1 / interlaced=0 / bluray_compat=0 / constrained_intra=0 / bframes=10 / b_pyramid=2 / b_adapt=2 / b_bias=0 / direct=3 / weightb=1 / open_gop=0 / weightp=2 / keyint=250 / keyint_min=23 / scenecut=40 / intra_refresh=0 / rc_lookahead=150 / rc=crf / mbtree=0 / crf=16.0 / qcomp=0.65 / qpmin=0 / qpmax=69 / qpstep=4 / vbv_maxrate=50000 / vbv_bufsize=62500 / crf_max=0.0 / nal_hrd=none / filler=0 / ip_ratio=1.20 / pb_ratio=1.20 / aq=3:0.75 / zones=0,824,crf=15.0/16064,16324,crf=15.0/20802,21021,crf=15.5/88917,90338,crf=15.5/109374,111955,crf=15.0/113362,117615,crf=15.0/140035,140180,crf=15.5/146740,146884,crf=15.5/149134,149184,crf=15.5/151899,151960,crf=15.5/153872,154026,crf=15.0 Язык : English Default : Да Forced : Нет

Аудио #1 Идентификатор : 2 Формат : DTS Формат/Информация : Digital Theater Systems Режим : 16 Параметр Endianness формата : Big Идентификатор кодека : A_DTS Продолжительность : 1 ч. 47 м. Вид битрейта : Постоянный Битрейт : 1510 Кбит/сек Каналы : 6 каналов Расположение каналов : Front: L C R, Side: L R, LFE Частота : 48,0 КГц Битовая глубина : 24 бит Метод сжатия : С потерями Размер потока : 1,13 Гбайт (19%) Заголовок : |Дубляж, Blu-Ray RUS| Язык : Russian Default : Да Forced : Нет

Аудио #2 Идентификатор : 3 Формат : DTS Формат/Информация : Digital Theater Systems Режим : 16 Параметр Endianness формата : Big Идентификатор кодека : A_DTS Продолжительность : 1 ч. 47 м. Вид битрейта : Постоянный Битрейт : 1509 Кбит/сек Каналы : 6 каналов Расположение каналов : Front: L C R, Side: L R, LFE Частота : 48,0 КГц Битовая глубина : 24 бит Метод сжатия : С потерями Размер потока : 1,13 Гбайт (19%) Язык : English Default : Нет Forced : Нет

Текст #1 Идентификатор : 4 Формат : UTF-8 Идентификатор кодека : S_TEXT/UTF8 Идентификатор кодека/Информация : UTF-8 Plain Text Язык : English Default : Нет Forced : Нет

Текст #2 Идентификатор : 5 Формат : UTF-8 Идентификатор кодека : S_TEXT/UTF8 Идентификатор кодека/Информация : UTF-8 Plain Text Заголовок : SDH Язык : English Default : Нет Forced : Нет

Меню 00:00:00.000 : en:Chapter 1 00:08:00.980 : en:Chapter 2 00:15:39.480 : en:Chapter 3 00:25:04.336 : en:Chapter 4 00:31:57.290 : en:Chapter 5 00:37:10.228 : en:Chapter 6 00:42:54.280 : en:Chapter 7 00:51:20.953 : en:Chapter 8 00:56:59.499 : en:Chapter 9 01:01:31.187 : en:Chapter 10 01:08:51.210 : en:Chapter 11 01:13:29.739 : en:Chapter 12 01:21:34.848 : en:Chapter 13 01:27:21.778 : en:Chapter 14 01:33:52.001 : en:Chapter 15 01:38:46.504 : en:Chapter 16

krutor.org

Скачать торрент Любите Куперов / Love the Coopers (2015) HDRip-AVC

Информация о фильмеНазвание: Любите КуперовОригинальное название: Love the CoopersГод выхода: 2015Жанр: комедияРежиссер: Джесси НельсонВ ролях: Дайан Китон, Джон Гудман, Эд Хелмс, Алекс Борштейн, Тимоти Чаламет, Максвелл Симкинс, Блейк Баумгартнер, Аманда Сайфред, Алан Аркин, Дэн Амбойер, Мариса Томей, Дороти Сильвер

О фильме:Феерическая рождественская комедия о том, что бывает, когда на праздник собираются представители четырех поколений одной большой семьи…

Страна: СШАСтудия: CBS Films, Groundswell Productions, Imagine EntertainmentПродолжительность: 01:47:06Перевод: Дублированный

ФайлКодек: x264Качество: HDRip-AVC (исх. BDRip 1080p)Видео: 720x304 (2.35:1), 23,976 fps, x264 ~910 kbps avg, 0.173 bit/pixelЗвук: 48 kHz, Advanced Audio Codec, 2 ch, Front: L R, ~64 kbps avgСубтитры: Отсутствуют

MediaInfo

Формат : Matroska Версия формата : Version 4 / Version 2 Размер файла : 746 Мбайт Продолжительность : 1 ч. 47 м. Общий поток : 974 Кбит/сек Название фильма : Love the Coopers by sergey07 Дата кодирования : UTC 2016-02-29 16:24:43 Программа кодирования : mkvmerge v7.6.0 ('Garden of Dreams') 64bit built on Feb 8 2015 13:04:34 Библиотека кодирования : libebml v1.3.1 + libmatroska v1.4.2 DURATION : 01:47:05.430000000 NUMBER_OF_FRAMES : 150596 NUMBER_OF_BYTES : 50349263 _STATISTICS_WRITING_APP : mkvmerge v7.6.0 ('Garden of Dreams') 64bit built on Feb 8 2015 13:04:34 _STATISTICS_WRITING_DATE_UTC : 2016-02-29 16:24:43 _STATISTICS_TAGS : BPS DURATION NUMBER_OF_FRAMES NUMBER_OF_BYTES

Видео Идентификатор : 1 Формат : AVC Формат/Информация : Advanced Video Codec Профиль формата : High@L4.1 Параметр CABAC формата : Да Параметр ReFrames формата : 14 кадров Идентификатор кодека : V_MPEG4/ISO/AVC Продолжительность : 1 ч. 47 м. Номинальный битрейт : 910 Кбит/сек Ширина : 720 пикселей Высота : 304 пикселя Соотношение сторон : 2,35:1 Режим частоты кадров : Постоянный Частота кадров : 23,976 кадра/сек Цветовое пространство : YUV Субдискретизация насыщенности : 4:2:0 Битовая глубина : 8 бит Тип развёртки : Прогрессивная Бит/(Пиксели*Кадры) : 0.173 Библиотека кодирования : x264 core 142 r2431 ac76440 Настройки программы : cabac=1 / ref=14 / deblock=1:-1:-1 / analyse=0x3:0x113 / me=umh / subme=10 / psy=1 / psy_rd=1.00:0.00 / mixed_ref=1 / me_range=32 / chroma_me=1 / trellis=2 / 8x8dct=1 / cqm=0 / deadzone=21,11 / fast_pskip=1 / chroma_qp_offset=-4 / threads=12 / lookahead_threads=2 / sliced_threads=0 / nr=0 / decimate=1 / interlaced=0 / bluray_compat=0 / constrained_intra=0 / bframes=11 / b_pyramid=2 / b_adapt=2 / b_bias=0 / direct=1 / weightb=1 / open_gop=0 / weightp=2 / keyint=240 / keyint_min=23 / scenecut=40 / intra_refresh=0 / rc_lookahead=40 / rc=2pass / mbtree=1 / bitrate=910 / ratetol=1.0 / qcomp=0.70 / qpmin=1 / qpmax=69 / qpstep=4 / cplxblur=20.0 / qblur=0.5 / vbv_maxrate=50000 / vbv_bufsize=62500 / nal_hrd=none / filler=0 / ip_ratio=1.40 / aq=1:1.00 Язык : English Default : Да Forced : Нет

Аудио Идентификатор : 2 Формат : AAC Формат/Информация : Advanced Audio Codec Профиль формата : HE-AAC / LC Идентификатор кодека : A_AAC Продолжительность : 1 ч. 47 м. Каналы : 2 канала Расположение каналов : Front: L R Частота : 48,0 КГц / 24,0 КГц Метод сжатия : С потерями Заголовок : Дубляж (aac, 48000 Hz, 2.0, 64 kb/s) Язык : Russian Default : Да Forced : Нет

x264 log

x264 [info]: using SAR=1/1 x264 [info]: using cpu capabilities: MMX2 SSE2Fast SSSE3 SSE4.2 AVX AVX2 FMA3 LZCNT BMI2 x264 [info]: profile High, level 4.1 x264 [info]: frame I:1561 Avg QP:15.84 size: 39869 x264 [info]: frame P:36758 Avg QP:19.59 size: 10113 x264 [info]: frame B:115762 Avg QP:23.22 size: 2564 x264 [info]: consecutive B-frames: 2.6% 3.4% 9.0% 35.5% 19.9% 24.3% 3.3% 1.0% 0.5% 0.2% 0.1% 0.1% x264 [info]: mb I I16..4: 5.2% 60.9% 33.9% x264 [info]: mb P I16..4: 0.8% 5.5% 1.5% P16..4: 37.4% 27.5% 17.3% 0.0% 0.0% skip: 9.8% x264 [info]: mb B I16..4: 0.1% 0.4% 0.1% B16..8: 38.2% 10.2% 3.5% direct: 4.0% skip:43.5% L0:40.6% L1:43.6% BI:15.8% x264 [info]: 8x8 transform intra:67.0% inter:56.8% x264 [info]: coded y,uvDC,uvAC intra: 82.9% 85.2% 66.7% inter: 17.7% 13.3% 4.4% x264 [info]: i16 v,h,dc,p: 36% 15% 6% 43% x264 [info]: i8 v,h,dc,ddl,ddr,vr,hd,vl,hu: 15% 10% 7% 8% 12% 13% 12% 12% 12% x264 [info]: i4 v,h,dc,ddl,ddr,vr,hd,vl,hu: 13% 10% 4% 9% 14% 14% 13% 11% 13% x264 [info]: i8c dc,h,v,p: 42% 22% 22% 14% x264 [info]: Weighted P-Frames: Y:2.2% UV:0.6% x264 [info]: ref P L0: 51.3% 14.4% 12.4% 5.5% 3.6% 3.1% 2.4% 1.5% 1.3% 1.1% 0.9% 0.9% 0.7% 0.9% 0.1% 0.0% x264 [info]: ref B L0: 78.8% 8.7% 4.5% 1.9% 1.9% 1.0% 1.0% 0.5% 0.6% 0.4% 0.4% 0.2% 0.1% x264 [info]: ref B L1: 92.9% 7.1% x264 [info]: kb/s:909.74

Релиз от:

krutor.org

Скачать торрент Любите Куперов / Love the Coopers (2015) BDRip-AVC от MediaClub

Информация о фильмеНазвание: Любите КуперовОригинальное название: Love the CoopersГод выпуска: 2015Жанр: КомедияРежиссер: Джесси НельсонВ ролях: Дайан Китон, Джон Гудман, Эд Хелмс, Алекс Борштейн, Тимоти Чаламет, Максвелл Симкинс, Блейк Баумгартнер, Аманда Сайфред, Алан Аркин, Дэн Амбойер, Мариса Томей, Дороти Сильвер, Оливия Уайлд, Майкл Пузатери, Джейк Лэси, Джун Скуиб, Ларри МакКэй, Энтони Маки, Молли Гордон, Сильвия Каудерс

О фильме: Четыре поколения семейства Куперов собираются вместе на ежегодном праздновании Рождественского сочельника. Серия невероятных событий, последовавших за появлением неожиданных гостей, прерывает размеренных ход их скучных семейных посиделок...

Страна: СШАСтудии: CBS Films, Groundswell Productions, Imagine EntertainmentПродолжительность: 01:47:06Перевод: Дублированный

ФайлКодек: MPEG-4 AVCКачество: BDRip-AVCВидео: 1900 Кбит/с, 1024x426, 23.976 кадр/сЗвук: Аудио #1: Русский (AC3, 6 ch, 448 Кбит/с)Аудио #2: Английский (AC3, 6 ch, 448 Кбит/с)

Семпл

Инфо-файл

Format : Matroska Format version : Version 1 File size : 2.09 GiB Duration : 1h 47mn Overall bit rate : 2 800 Kbps Encoded date : UTC 2016-02-28 20:29:02 Writing application : mkvmerge v2.1.0 ('Another Place To Fall') built on Aug 19 2007 13:40:07 Writing library : libebml v0.7.7 + libmatroska v0.8.1

Video ID : 1 Format : AVC Format/Info : Advanced Video Codec Format profile : High@L4.1 Format settings, CABAC : Yes Format settings, ReFrames : 9 frames Codec ID : V_MPEG4/ISO/AVC Duration : 1h 47mn Bit rate : 1 900 Kbps Width : 1 024 pixels Height : 426 pixels Display aspect ratio : 2.40:1 Frame rate mode : Constant Frame rate : 23.976 fps Color space : YUV Chroma subsampling : 4:2:0 Bit depth : 8 bits Scan type : Progressive Bits/(Pixel*Frame) : 0.182 Stream size : 1.38 GiB (66%) Writing library : x264 core 146 r2538 121396c Encoding settings : cabac=1 / ref=9 / deblock=1:-2:-2 / analyse=0x3:0x113 / me=umh / subme=11 / psy=1 / psy_rd=1.00:0.01 / mixed_ref=1 / me_range=32 / chroma_me=1 / trellis=2 / 8x8dct=1 / cqm=0 / deadzone=21,11 / fast_pskip=0 / chroma_qp_offset=-3 / threads=6 / lookahead_threads=1 / sliced_threads=0 / nr=0 / decimate=0 / interlaced=0 / bluray_compat=0 / constrained_intra=0 / bframes=8 / b_pyramid=2 / b_adapt=2 / b_bias=0 / direct=3 / weightb=1 / open_gop=0 / weightp=2 / keyint=240 / keyint_min=23 / scenecut=40 / intra_refresh=0 / rc_lookahead=40 / rc=2pass / mbtree=0 / bitrate=1900 / ratetol=1.0 / qcomp=0.60 / qpmin=0 / qpmax=69 / qpstep=4 / cplxblur=20.0 / qblur=0.5 / vbv_maxrate=14000 / vbv_bufsize=14000 / nal_hrd=none / filler=0 / ip_ratio=1.40 / pb_ratio=1.30 / aq=1:0.80 Language : English Default : Yes Forced : No

Audio #1 ID : 2 Format : AC-3 Format/Info : Audio Coding 3 Mode extension : CM (complete main) Format settings, Endianness : Big Codec ID : A_AC3 Duration : 1h 47mn Bit rate mode : Constant Bit rate : 448 Kbps Channel(s) : 6 channels Channel positions : Front: L C R, Side: L R, LFE Sampling rate : 48.0 KHz Bit depth : 16 bits Compression mode : Lossy Stream size : 343 MiB (16%) Language : Russian Default : Yes Forced : No

Audio #2 ID : 3 Format : AC-3 Format/Info : Audio Coding 3 Mode extension : CM (complete main) Format settings, Endianness : Big Codec ID : A_AC3 Duration : 1h 47mn Bit rate mode : Constant Bit rate : 448 Kbps Channel(s) : 6 channels Channel positions : Front: L C R, Side: L R, LFE Sampling rate : 48.0 KHz Bit depth : 16 bits Compression mode : Lossy Stream size : 343 MiB (16%) Language : English Default : No Forced : No

Релиз от: |

krutor.org


Смотрите также