Скачать торрент элвис и никсон


Скачать торрент Элвис и Никсон / Elvis & Nixon (2016) BDRip 720p от ExKinoRay

Информация о фильмеНазвание: Элвис и НиксонОригинальное название: Elvis & NixonГод выхода: 2016Жанр: Комедия, историяРежиссер: Лиза ДжонсонВ ролях: Кевин Спейси, Майкл Шеннон, Алекс Петтифер, Джонни Ноксвилл, Колин Хэнкс, Эван Питерс, Скай Феррейра, Трэйси Леттс, Тейт Донован, Эшли Бенсон

О фильме: О чем болтали король рок-н-ролла Элвис Пресли и президент США Ричард Никсон, когда они встретились в Овальном кабинете? Обеспокоенный стремительным распространением в Америке наркомании и социализма, Элвис просит назначить его тайным агентом наркоконтроля. Президент принимает предложение певца, но заставить Пресли соблюсти хотя бы протокол Белому дому так и не удалось…

Страна: СШАСтудия: Amazon StudiosПродолжительность: 01:26:09Перевод: Дублированный | iTunes

ФайлКодек: MPEG-4Качество: BDRip 720pВидео: 1280x534, 6897 Kbit/s, 23.976 fpsЗвук: Аудио #01: 48 kHz, AC3, 5.1, 384 Kbps | Дублированный, iTunes | Аудио #02: 48 kHz, DTS, 5.1, 1510 kbps | Оригинал | Субтитры: Английские

Релиз от: Автор релиза:

MI

General Unique ID : 222054667463518202050777940079388705072 (0xA70E2C5FBDBBD9B9876235E5E248C130) Complete name : F:VideoElvis.&.Nixon.2016.BDRip.720p.ExKinoRay.mkv Format : Matroska Format version : Version 4 / Version 2 File size : 5.29 GiB Duration : 1h 26mn Overall bit rate : 8 792 Kbps Movie name : Elvis.&.Nixon.2016.BDRip.720p.ExKinoRay Encoded date : UTC 2016-07-10 18:19:34 Writing application : mkvmerge v8.3.0 ('Over the Horizon') 64bit Writing library : libebml v1.3.1 + libmatroska v1.4.2

Video ID : 1 Format : AVC Format/Info : Advanced Video Codec Format profile : High@L4.1 Format settings, CABAC : Yes Format settings, ReFrames : 12 frames Codec ID : V_MPEG4/ISO/AVC Duration : 1h 26mn Bit rate : 6 897 Kbps Width : 1 280 pixels Height : 534 pixels Display aspect ratio : 2.40:1 Frame rate mode : Constant Frame rate : 23.976 (24000/1001) fps Color space : YUV Chroma subsampling : 4:2:0 Bit depth : 8 bits Scan type : Progressive Bits/(Pixel*Frame) : 0.421 Stream size : 4.15 GiB (78%) Writing library : x264 core 148 r2705+54 9f484c1 t_mod_Custom [8-bit@all X86_64] Encoding settings : cabac=1 / ref=12 / deblock=1:-3:-3 / analyse=0x3:0x133 / me=umh / subme=11 / psy=1 / fade_compensate=0.00 / psy_rd=0.92:0.00 / mixed_ref=1 / me_range=32 / chroma_me=1 / trellis=2 / 8x8dct=1 / cqm=0 / deadzone=21,11 / fast_pskip=0 / chroma_qp_offset=-2 / threads=6 / lookahead_threads=1 / sliced_threads=0 / nr=0 / decimate=0 / interlaced=0 / bluray_compat=0 / constrained_intra=0 / fgo=0 / bframes=8 / b_pyramid=2 / b_adapt=2 / b_bias=0 / direct=3 / weightb=1 / open_gop=0 / weightp=2 / keyint=250 / keyint_min=23 / scenecut=40 / intra_refresh=0 / rc_lookahead=60 / rc=crf / mbtree=0 / crf=14.6000 / qcomp=0.62 / qpmin=0:0:0 / qpmax=69:69:69 / qpstep=4 / vbv_maxrate=30000 / vbv_bufsize=38000 / crf_max=0.0 / nal_hrd=none / filler=0 / ip_ratio=1.30 / pb_ratio=1.20 / aq=1:0.80 / aq-sensitivity=10.00 / aq-factor=1.00:1.00:1.00 / aq2=0 / aq3=0 Language : English Default : Yes Forced : No

Audio #1 ID : 2 Format : AC-3 Format/Info : Audio Coding 3 Mode extension : CM (complete main) Format settings, Endianness : Big Codec ID : A_AC3 Duration : 1h 25mn Bit rate mode : Constant Bit rate : 384 Kbps Channel(s) : 6 channels Channel positions : Front: L C R, Side: L R, LFE Sampling rate : 48.0 KHz Frame rate : 31.250 fps (1536 spf) Compression mode : Lossy Delay relative to video : 11s 776ms Stream size : 236 MiB (4%) Title : DUB [iTunes] Language : Russian Default : Yes Forced : No

Audio #2 ID : 3 Format : DTS Format/Info : Digital Theater Systems Mode : 16 Format settings, Endianness : Big Codec ID : A_DTS Duration : 1h 26mn Bit rate mode : Constant Bit rate : 1 509 Kbps Channel(s) : 6 channels Channel positions : Front: L C R, Side: L R, LFE Sampling rate : 48.0 KHz Frame rate : 93.750 fps (512 spf) Bit depth : 24 bits Compression mode : Lossy Stream size : 930 MiB (17%) Title : Original Language : English Default : No Forced : No

Text ID : 4 Format : UTF-8 Codec ID : S_TEXT/UTF8 Codec ID/Info : UTF-8 Plain Text Duration : 1h 20mn Bit rate : 81 bps Count of elements : 1508 Stream size : 48.3 KiB (0%) Title : Full Language : English Default : No Forced : No

Menu 00:00:00.000 : en:Chapter 01 00:04:56.129 : en:Chapter 02 00:10:34.717 : en:Chapter 03 00:15:43.109 : en:Chapter 04 00:21:12.688 : en:Chapter 05 00:26:17.326 : en:Chapter 06 00:31:09.826 : en:Chapter 07 00:36:54.087 : en:Chapter 08 00:42:49.400 : en:Chapter 09 00:47:46.280 : en:Chapter 10 00:53:30.541 : en:Chapter 11 00:59:41.620 : en:Chapter 12 01:05:53.491 : en:Chapter 13 01:10:21.342 : en:Chapter 14 01:14:24.043 : en:Chapter 15 01:19:44.446 : en:Chapter 16

krutor.org

/ Elvis & Nixon (2016) BDRip 1080p » HDReactor. , HD !

: -- , ? , . ,

: BDRip (1080p): MPEG-4 AVC, 9388 /, 1920x800: (AC3, 6 ch, 384 /), (DTS, 6 ch, 1510 /): 01:26:09: - (iTunes) .:

GeneralUnique ID : 209907828904739792559264770114702198001 (0x9DEAC6FEC3AACA34AF8788A77F52C4F1)Complete name : E:\Video\Elvis.and.Nixon.2016.BDRip.1080p.NNMCLUB.mkvFormat : MatroskaFormat version : Version 4 / Version 2File size : 6.79 GiBDuration : 1h 26mnOverall bit rate : 11.3 MbpsEncoded date : UTC 2016-07-06 00:26:44Writing application : mkvmerge v9.2.0 ('Photograph') 64bitWriting library : libebml v1.3.3 + libmatroska v1.4.4

VideoID : 1Format : AVCFormat/Info : Advanced Video CodecFormat profile : [email protected]Format settings, CABAC : YesFormat settings, ReFrames : 5 framesCodec ID : V_MPEG4/ISO/AVCDuration : 1h 26mnBit rate : 9 388 KbpsWidth : 1 920 pixelsHeight : 800 pixelsDisplay aspect ratio : 2.40:1Frame rate mode : ConstantFrame rate : 23.976 fpsColor space : YUVChroma subsampling : 4:2:0Bit depth : 8 bitsScan type : ProgressiveBits/(Pixel*Frame) : 0.255Stream size : 5.65 GiB (83%)Title : NNMCLUBWriting library : x264 core 148 r2692 64f4e24Encoding settings : cabac=1 / ref=5 / deblock=1:0:0 / analyse=0x3:0x133 / me=umh / subme=7 / psy=1 / psy_rd=1.00:0.00 / mixed_ref=1 / me_range=16 / chroma_me=1 / trellis=1 / 8x8dct=1 / cqm=0 / deadzone=21,11 / fast_pskip=0 / chroma_qp_offset=-2 / threads=25 / lookahead_threads=4 / sliced_threads=0 / nr=0 / decimate=1 / interlaced=0 / bluray_compat=0 / constrained_intra=0 / bframes=3 / b_pyramid=2 / b_adapt=1 / b_bias=0 / direct=1 / weightb=1 / open_gop=0 / weightp=2 / keyint=250 / keyint_min=23 / scenecut=40 / intra_refresh=0 / rc_lookahead=40 / rc=2pass / mbtree=1 / bitrate=9388 / ratetol=1.0 / qcomp=0.60 / qpmin=0 / qpmax=69 / qpstep=4 / cplxblur=20.0 / qblur=0.5 / ip_ratio=1.40 / aq=1:1.00Language : EnglishDefault : YesForced : No

Audio #1ID : 2Format : AC-3Format/Info : Audio Coding 3Mode extension : CM (complete main)Format settings, Endianness : BigCodec ID : A_AC3Duration : 1h 26mnBit rate mode : ConstantBit rate : 384 KbpsChannel(s) : 6 channelsChannel positions : Front: L C R, Side: L R, LFESampling rate : 48.0 KHzFrame rate : 31.250 fps (1536 spf)Compression mode : LossyStream size : 236 MiB (3%)Title : iTunesLanguage : RussianDefault : YesForced : No

Audio #2ID : 3Format : DTSFormat/Info : Digital Theater SystemsMode : 16Format settings, Endianness : BigCodec ID : A_DTSDuration : 1h 26mnBit rate mode : ConstantBit rate : 1 509 KbpsChannel(s) : 6 channelsChannel positions : Front: L C R, Side: L R, LFESampling rate : 48.0 KHzFrame rate : 93.750 fps (512 spf)Bit depth : 24 bitsCompression mode : LossyStream size : 930 MiB (13%)Language : EnglishDefault : NoForced : No

TextID : 4Format : VobSubMuxing mode : zlibCodec ID : S_VOBSUBCodec ID/Info : Picture based subtitle format used on DVDsDuration : 1h 20mnBit rate : 7 783 bpsCount of elements : 1533Stream size : 4.49 MiB (0%)Language : EnglishDefault : NoForced : No

Menu00:00:00.000 : en:00:00:00.00000:04:56.129 : en:00:04:56.12900:10:34.717 : en:00:10:34.71700:15:43.109 : en:00:15:43.10900:21:12.688 : en:00:21:12.68800:26:17.326 : en:00:26:17.32600:31:09.826 : en:00:31:09.82600:36:54.087 : en:00:36:54.08700:42:49.400 : en:00:42:49.40000:47:46.280 : en:00:47:46.28000:53:30.541 : en:00:53:30.54100:59:41.620 : en:00:59:41.62001:05:53.491 : en:01:05:53.49101:10:21.342 : en:01:10:21.34201:14:24.043 : en:01:14:24.04301:19:44.446 : en:01:19:44.446

hdreactor.info

Скачать торрент Элвис и Никсон / Elvis & Nixon (2016) WEB-DL 1080p

Информация о фильмеНазвание: Элвис и НиксонОригинальное название: Elvis & NixonГод выхода: 2016Жанр: комедия, историяРежиссер: Лиза ДжонсонВ ролях: Кевин Спейси, Майкл Шеннон, Алекс Петтифер, Джонни Ноксвил, Колин Хэнкс, Эван Питерс, Скай Феррейра, Трэйси Леттс, Тейт Донован, Эшли Бенсон

О фильме: О чем болтали король рок-н-ролла Элвис Пресли и президент США Ричард Никсон, когда они встретились в Овальном кабинете? Обеспокоенный стремительным распространением в Америке наркомании и социализма, Элвис просит назначить его тайным агентом наркоконтроля. Президент принимает предложение певца, но заставить Пресли соблюсти хотя бы протокол Белому дому так и не удалось…

Выпущено: СШАПродолжительность: 01:22:30Озвучивание: Дублированное [iTunes]

ФайлФормат: MKVКачество: WEB-DL 1080pВидео: MPEG-4 AVC, 4371 kb/s, 1920x802Аудио: AC3, 384 kb/s (6 ch)

MI

Format : Matroska Format version : Version 4 / Version 2 File size : 2.80 GiB Duration : 1h 22mn Overall bit rate : 4 851 Kbps Encoded date : UTC 2016-05-30 17:06:17 Writing application : mkvmerge v8.3.0 ('Over the Horizon') 64bit Writing library : libebml v1.3.1 + libmatroska v1.4.2

Video ID : 1 Format : AVC Format/Info : Advanced Video Codec Format profile : High@L4 Format settings, CABAC : Yes Format settings, ReFrames : 5 frames Codec ID : V_MPEG4/ISO/AVC Duration : 1h 22mn Bit rate : 4 371 Kbps Width : 1 920 pixels Height : 802 pixels Display aspect ratio : 2.40:1 Frame rate mode : Constant Frame rate : 25.000 fps Color space : YUV Chroma subsampling : 4:2:0 Bit depth : 8 bits Scan type : Progressive Bits/(Pixel*Frame) : 0.114 Stream size : 2.52 GiB (90%) Language : English Default : Yes Forced : No Color range : Limited Color primaries : BT.709 Transfer characteristics : BT.709 Matrix coefficients : BT.709

Audio ID : 2 Format : AC-3 Format/Info : Audio Coding 3 Mode extension : CM (complete main) Format settings, Endianness : Big Codec ID : A_AC3 Duration : 1h 22mn Bit rate mode : Constant Bit rate : 384 Kbps Channel(s) : 6 channels Channel positions : Front: L C R, Side: L R, LFE Sampling rate : 48.0 KHz Bit depth : 16 bits Compression mode : Lossy Stream size : 227 MiB (8%) Language : Russian Default : Yes Forced : No

Menu 00:00:00.000 : en:Глава 1 00:06:00.440 : en:Глава 2 00:11:11.960 : en:Глава 3 00:16:57.200 : en:Глава 4 00:22:17.760 : en:Глава 5 00:28:13.320 : en:Глава 6 00:33:45.640 : en:Глава 7 00:39:42.200 : en:Глава 8 00:45:12.720 : en:Глава 9 00:51:07.680 : en:Глава 10 00:57:06.240 : en:Глава 11 01:04:25.840 : en:Глава 12 01:10:13.560 : en:Глава 13 01:16:17.160 : en:Глава 14

krutor.org

Скачать торрент Элвис и Никсон / Elvis & Nixon (2016) BDRip-AVC от HELLYWOOD | D

«Реальная история, в которую вы не поверите»

Информация о фильмеНазвание: Элвис и Никсон Оригинальное название: Elvis & NixonГод выхода: 2016Жанр: Комедия, историяРежиссер: Лиза ДжонсонВ ролях: Кевин Спейси, Майкл Шеннон, Алекс Петтифер, Джонни Ноксвилл, Колин Хэнкс, Эван Питерс, Скай Феррейра, Трэйси Леттс, Тейт Донован, Эшли Бенсон

О фильме: О чем болтали король рок-н-ролла Элвис Пресли и президент США Ричард Никсон, когда они встретились в Овальном кабинете? Обеспокоенный стремительным распространением в Америке наркомании и социализма, Элвис просит назначить его тайным агентом наркоконтроля. Президент принимает предложение певца, но заставить Пресли соблюсти хотя бы протокол Белому дому так и не удалось…

Страна: СШАСтудия: Amazon StudiosПродолжительность: 01:26:09Перевод: Профессиональный (полное дублирование)[iTunes]

ФайлКачество: BDRip-AVCКодек: MPEG-4 AVCВидео: 1152x480 (2.40:1), 23,976 fps, MPEG-4 AVC ~2726 kbps avg, 0.206 bit/pixelАудио: 48 kHz, AC3, 6 ch, ~384.00 kbps avg | русский | Профессиональный (полное дублирование)[iTunes] Аудио: 48 kHz, AC3, 6 ch, ~448.00 kbps avg | английский | Оригинал Субтитры: Английские (Full)Семпл

Инфо-файл

Общее Уникальный идентификатор : 231889993520092793132997044236054140376 (0xAE7463633303F9909D865CED848B95D8) Полное имя : Elvis.&.Nikson.2016.DUAL.BDRip.x264.-HELLYWOOD.mkv Формат : Matroska Версия формата : Version 4 / Version 2 Размер файла : 2,14 Гбайт Продолжительность : 1 ч. 26 м. Общий поток : 3558 Кбит/сек Название фильма : Elvis & Nixon (2016) Дата кодирования : UTC 2016-07-10 16:52:26 Программа кодирования : mkvmerge v5.9.0 ('On The Loose') built on Dec 15 2012 16:39:58 Библиотека кодирования : libebml v1.3.0 + libmatroska v1.4.0

Видео Идентификатор : 1 Формат : AVC Формат/Информация : Advanced Video Codec Профиль формата : High@L4.1 Параметр CABAC формата : Да Параметр ReFrames формата : 10 кадров Идентификатор кодека : V_MPEG4/ISO/AVC Продолжительность : 1 ч. 26 м. Битрейт : 2726 Кбит/сек Ширина : 1152 пикселя Высота : 480 пикселей Соотношение сторон : 2,40:1 Режим частоты кадров : Постоянный Частота кадров : 23,976 (24000/1001) кадра/сек Цветовое пространство : YUV Субдискретизация насыщенности : 4:2:0 Битовая глубина : 8 бит Тип развёртки : Прогрессивная Бит/(Пиксели*Кадры) : 0.206 Размер потока : 1,60 Гбайт (75%) Заголовок : potroks Библиотека кодирования : x264 core 148 r2705M 3f5ed56 Настройки программы : cabac=1 / ref=10 / deblock=1:-2:-2 / analyse=0x3:0x133 / me=umh / subme=11 / psy=1 / psy_rd=1.04:0.10 / mixed_ref=1 / me_range=48 / chroma_me=1 / trellis=2 / 8x8dct=1 / cqm=0 / deadzone=21,11 / fast_pskip=0 / chroma_qp_offset=-3 / threads=9 / lookahead_threads=2 / sliced_threads=0 / nr=0 / decimate=0 / interlaced=0 / bluray_compat=0 / constrained_intra=0 / bframes=11 / b_pyramid=2 / b_adapt=2 / b_bias=0 / direct=3 / weightb=1 / open_gop=0 / weightp=2 / keyint=240 / keyint_min=23 / scenecut=40 / intra_refresh=0 / rc_lookahead=100 / rc=2pass / mbtree=0 / bitrate=2726 / ratetol=1.0 / qcomp=0.70 / qpmin=1 / qpmax=69 / qpstep=4 / cplxblur=20.0 / qblur=0.5 / vbv_maxrate=50000 / vbv_bufsize=60000 / nal_hrd=none / filler=0 / ip_ratio=1.40 / pb_ratio=1.30 / aq=1:0.75 Язык : English Default : Да Forced : Нет

Аудио #1 Идентификатор : 2 Формат : AC-3 Формат/Информация : Audio Coding 3 Расширение режима : CM (complete main) Параметр Endianness формата : Big Идентификатор кодека : A_AC3 Продолжительность : 1 ч. 26 м. Вид битрейта : Постоянный Битрейт : 384 Кбит/сек Каналы : 6 каналов Расположение каналов : Front: L C R, Side: L R, LFE Частота : 48,0 КГц Частота кадров : 31,250 кадров/сек (1536 spf) Метод сжатия : С потерями Задержка видео : 11 с. Размер потока : 237 Мбайт (11%) Заголовок : Dub | DD 5.1 @ 384 kbps - iTunes Язык : Russian Default : Да Forced : Нет

Аудио #2 Идентификатор : 3 Формат : AC-3 Формат/Информация : Audio Coding 3 Расширение режима : CM (complete main) Параметр Endianness формата : Big Идентификатор кодека : A_AC3 Продолжительность : 1 ч. 26 м. Вид битрейта : Постоянный Битрейт : 448 Кбит/сек Каналы : 6 каналов Расположение каналов : Front: L C R, Side: L R, LFE Частота : 48,0 КГц Частота кадров : 31,250 кадров/сек (1536 spf) Метод сжатия : С потерями Размер потока : 276 Мбайт (13%) Заголовок : Original | DD 5.1 @ 448 kbps Язык : English Default : Нет Forced : Нет

Текст Идентификатор : 4 Формат : UTF-8 Идентификатор кодека : S_TEXT/UTF8 Идентификатор кодека/Информация : UTF-8 Plain Text Язык : English Default : Нет Forced : Нет

Меню 00:00:00.000 : :Chapter 1 00:04:56.129 : :Chapter 2 00:10:34.717 : :Chapter 3 00:15:43.108 : :Chapter 4 00:21:12.688 : :Chapter 5 00:26:17.325 : :Chapter 6 00:31:09.826 : :Chapter 7 00:36:54.086 : :Chapter 8 00:42:49.400 : :Chapter 9 00:47:46.280 : :Chapter 10 00:53:30.540 : :Chapter 11 00:59:41.619 : :Chapter 12 01:05:53.491 : :Chapter 13 01:10:21.341 : :Chapter 14 01:14:24.042 : :Chapter 15 01:19:44.446 : :Chapter 16

Релиз от: Автор рипа: potroks

krutor.org

Скачать торрент Элвис и Никсон / Elvis & Nixon (2016) WEB-DL 1080p

Информация о фильмеНазвание: Элвис и НиксонОригинальное название: Elvis & NixonГод выхода: 2016Жанр: комедия, историяРежиссер: Лиза ДжонсонВ ролях: Кевин Спейси, Майкл Шеннон, Алекс Петтифер, Джонни Ноксвил, Колин Хэнкс, Эван Питерс, Скай Феррейра, Трэйси Леттс, Тейт Донован, Эшли Бенсон

О фильме: О чем болтали король рок-н-ролла Элвис Пресли и президент США Ричард Никсон, когда они встретились в Овальном кабинете? Обеспокоенный стремительным распространением в Америке наркомании и социализма, Элвис просит назначить его тайным агентом наркоконтроля. Президент принимает предложение певца, но заставить Пресли соблюсти хотя бы протокол Белому дому так и не удалось…

Выпущено: СШАПродолжительность: 01:22:30Озвучивание: Дублированное [iTunes]

ФайлФормат: MKVКачество: WEB-DL 1080pВидео: MPEG-4 AVC, 4371 kb/s, 1920x802Аудио: AC3, 384 kb/s (6 ch)

MI

Format : Matroska Format version : Version 4 / Version 2 File size : 2.80 GiB Duration : 1h 22mn Overall bit rate : 4 851 Kbps Encoded date : UTC 2016-05-30 17:06:17 Writing application : mkvmerge v8.3.0 ('Over the Horizon') 64bit Writing library : libebml v1.3.1 + libmatroska v1.4.2

Video ID : 1 Format : AVC Format/Info : Advanced Video Codec Format profile : High@L4 Format settings, CABAC : Yes Format settings, ReFrames : 5 frames Codec ID : V_MPEG4/ISO/AVC Duration : 1h 22mn Bit rate : 4 371 Kbps Width : 1 920 pixels Height : 802 pixels Display aspect ratio : 2.40:1 Frame rate mode : Constant Frame rate : 25.000 fps Color space : YUV Chroma subsampling : 4:2:0 Bit depth : 8 bits Scan type : Progressive Bits/(Pixel*Frame) : 0.114 Stream size : 2.52 GiB (90%) Language : English Default : Yes Forced : No Color range : Limited Color primaries : BT.709 Transfer characteristics : BT.709 Matrix coefficients : BT.709

Audio ID : 2 Format : AC-3 Format/Info : Audio Coding 3 Mode extension : CM (complete main) Format settings, Endianness : Big Codec ID : A_AC3 Duration : 1h 22mn Bit rate mode : Constant Bit rate : 384 Kbps Channel(s) : 6 channels Channel positions : Front: L C R, Side: L R, LFE Sampling rate : 48.0 KHz Bit depth : 16 bits Compression mode : Lossy Stream size : 227 MiB (8%) Language : Russian Default : Yes Forced : No

Menu 00:00:00.000 : en:Глава 1 00:06:00.440 : en:Глава 2 00:11:11.960 : en:Глава 3 00:16:57.200 : en:Глава 4 00:22:17.760 : en:Глава 5 00:28:13.320 : en:Глава 6 00:33:45.640 : en:Глава 7 00:39:42.200 : en:Глава 8 00:45:12.720 : en:Глава 9 00:51:07.680 : en:Глава 10 00:57:06.240 : en:Глава 11 01:04:25.840 : en:Глава 12 01:10:13.560 : en:Глава 13 01:16:17.160 : en:Глава 14

mrutor.org

Скачать торрент Элвис и Никсон / Elvis & Nixon (2016) BDRip 720p от ExKinoRay

Информация о фильмеНазвание: Элвис и НиксонОригинальное название: Elvis & NixonГод выхода: 2016Жанр: Комедия, историяРежиссер: Лиза ДжонсонВ ролях: Кевин Спейси, Майкл Шеннон, Алекс Петтифер, Джонни Ноксвилл, Колин Хэнкс, Эван Питерс, Скай Феррейра, Трэйси Леттс, Тейт Донован, Эшли Бенсон

О фильме: О чем болтали король рок-н-ролла Элвис Пресли и президент США Ричард Никсон, когда они встретились в Овальном кабинете? Обеспокоенный стремительным распространением в Америке наркомании и социализма, Элвис просит назначить его тайным агентом наркоконтроля. Президент принимает предложение певца, но заставить Пресли соблюсти хотя бы протокол Белому дому так и не удалось…

Страна: СШАСтудия: Amazon StudiosПродолжительность: 01:26:09Перевод: Дублированный | iTunes

ФайлКодек: MPEG-4Качество: BDRip 720pВидео: 1280x534, 6897 Kbit/s, 23.976 fpsЗвук: Аудио #01: 48 kHz, AC3, 5.1, 384 Kbps | Дублированный, iTunes | Аудио #02: 48 kHz, DTS, 5.1, 1510 kbps | Оригинал | Субтитры: Английские

Релиз от: Автор релиза:

MI

General Unique ID : 222054667463518202050777940079388705072 (0xA70E2C5FBDBBD9B9876235E5E248C130) Complete name : F:VideoElvis.&.Nixon.2016.BDRip.720p.ExKinoRay.mkv Format : Matroska Format version : Version 4 / Version 2 File size : 5.29 GiB Duration : 1h 26mn Overall bit rate : 8 792 Kbps Movie name : Elvis.&.Nixon.2016.BDRip.720p.ExKinoRay Encoded date : UTC 2016-07-10 18:19:34 Writing application : mkvmerge v8.3.0 ('Over the Horizon') 64bit Writing library : libebml v1.3.1 + libmatroska v1.4.2

Video ID : 1 Format : AVC Format/Info : Advanced Video Codec Format profile : High@L4.1 Format settings, CABAC : Yes Format settings, ReFrames : 12 frames Codec ID : V_MPEG4/ISO/AVC Duration : 1h 26mn Bit rate : 6 897 Kbps Width : 1 280 pixels Height : 534 pixels Display aspect ratio : 2.40:1 Frame rate mode : Constant Frame rate : 23.976 (24000/1001) fps Color space : YUV Chroma subsampling : 4:2:0 Bit depth : 8 bits Scan type : Progressive Bits/(Pixel*Frame) : 0.421 Stream size : 4.15 GiB (78%) Writing library : x264 core 148 r2705+54 9f484c1 t_mod_Custom [8-bit@all X86_64] Encoding settings : cabac=1 / ref=12 / deblock=1:-3:-3 / analyse=0x3:0x133 / me=umh / subme=11 / psy=1 / fade_compensate=0.00 / psy_rd=0.92:0.00 / mixed_ref=1 / me_range=32 / chroma_me=1 / trellis=2 / 8x8dct=1 / cqm=0 / deadzone=21,11 / fast_pskip=0 / chroma_qp_offset=-2 / threads=6 / lookahead_threads=1 / sliced_threads=0 / nr=0 / decimate=0 / interlaced=0 / bluray_compat=0 / constrained_intra=0 / fgo=0 / bframes=8 / b_pyramid=2 / b_adapt=2 / b_bias=0 / direct=3 / weightb=1 / open_gop=0 / weightp=2 / keyint=250 / keyint_min=23 / scenecut=40 / intra_refresh=0 / rc_lookahead=60 / rc=crf / mbtree=0 / crf=14.6000 / qcomp=0.62 / qpmin=0:0:0 / qpmax=69:69:69 / qpstep=4 / vbv_maxrate=30000 / vbv_bufsize=38000 / crf_max=0.0 / nal_hrd=none / filler=0 / ip_ratio=1.30 / pb_ratio=1.20 / aq=1:0.80 / aq-sensitivity=10.00 / aq-factor=1.00:1.00:1.00 / aq2=0 / aq3=0 Language : English Default : Yes Forced : No

Audio #1 ID : 2 Format : AC-3 Format/Info : Audio Coding 3 Mode extension : CM (complete main) Format settings, Endianness : Big Codec ID : A_AC3 Duration : 1h 25mn Bit rate mode : Constant Bit rate : 384 Kbps Channel(s) : 6 channels Channel positions : Front: L C R, Side: L R, LFE Sampling rate : 48.0 KHz Frame rate : 31.250 fps (1536 spf) Compression mode : Lossy Delay relative to video : 11s 776ms Stream size : 236 MiB (4%) Title : DUB [iTunes] Language : Russian Default : Yes Forced : No

Audio #2 ID : 3 Format : DTS Format/Info : Digital Theater Systems Mode : 16 Format settings, Endianness : Big Codec ID : A_DTS Duration : 1h 26mn Bit rate mode : Constant Bit rate : 1 509 Kbps Channel(s) : 6 channels Channel positions : Front: L C R, Side: L R, LFE Sampling rate : 48.0 KHz Frame rate : 93.750 fps (512 spf) Bit depth : 24 bits Compression mode : Lossy Stream size : 930 MiB (17%) Title : Original Language : English Default : No Forced : No

Text ID : 4 Format : UTF-8 Codec ID : S_TEXT/UTF8 Codec ID/Info : UTF-8 Plain Text Duration : 1h 20mn Bit rate : 81 bps Count of elements : 1508 Stream size : 48.3 KiB (0%) Title : Full Language : English Default : No Forced : No

Menu 00:00:00.000 : en:Chapter 01 00:04:56.129 : en:Chapter 02 00:10:34.717 : en:Chapter 03 00:15:43.109 : en:Chapter 04 00:21:12.688 : en:Chapter 05 00:26:17.326 : en:Chapter 06 00:31:09.826 : en:Chapter 07 00:36:54.087 : en:Chapter 08 00:42:49.400 : en:Chapter 09 00:47:46.280 : en:Chapter 10 00:53:30.541 : en:Chapter 11 00:59:41.620 : en:Chapter 12 01:05:53.491 : en:Chapter 13 01:10:21.342 : en:Chapter 14 01:14:24.043 : en:Chapter 15 01:19:44.446 : en:Chapter 16

mrutor.org

Скачать торрент Элвис и Никсон / Elvis & Nixon (2016) BDRip-AVC от HELLYWOOD | D

«Реальная история, в которую вы не поверите»

Информация о фильмеНазвание: Элвис и Никсон Оригинальное название: Elvis & NixonГод выхода: 2016Жанр: Комедия, историяРежиссер: Лиза ДжонсонВ ролях: Кевин Спейси, Майкл Шеннон, Алекс Петтифер, Джонни Ноксвилл, Колин Хэнкс, Эван Питерс, Скай Феррейра, Трэйси Леттс, Тейт Донован, Эшли Бенсон

О фильме: О чем болтали король рок-н-ролла Элвис Пресли и президент США Ричард Никсон, когда они встретились в Овальном кабинете? Обеспокоенный стремительным распространением в Америке наркомании и социализма, Элвис просит назначить его тайным агентом наркоконтроля. Президент принимает предложение певца, но заставить Пресли соблюсти хотя бы протокол Белому дому так и не удалось…

Страна: СШАСтудия: Amazon StudiosПродолжительность: 01:26:09Перевод: Профессиональный (полное дублирование)[iTunes]

ФайлКачество: BDRip-AVCКодек: MPEG-4 AVCВидео: 1152x480 (2.40:1), 23,976 fps, MPEG-4 AVC ~2726 kbps avg, 0.206 bit/pixelАудио: 48 kHz, AC3, 6 ch, ~384.00 kbps avg | русский | Профессиональный (полное дублирование)[iTunes] Аудио: 48 kHz, AC3, 6 ch, ~448.00 kbps avg | английский | Оригинал Субтитры: Английские (Full)Семпл

Инфо-файл

Общее Уникальный идентификатор : 231889993520092793132997044236054140376 (0xAE7463633303F9909D865CED848B95D8) Полное имя : Elvis.&.Nikson.2016.DUAL.BDRip.x264.-HELLYWOOD.mkv Формат : Matroska Версия формата : Version 4 / Version 2 Размер файла : 2,14 Гбайт Продолжительность : 1 ч. 26 м. Общий поток : 3558 Кбит/сек Название фильма : Elvis & Nixon (2016) Дата кодирования : UTC 2016-07-10 16:52:26 Программа кодирования : mkvmerge v5.9.0 ('On The Loose') built on Dec 15 2012 16:39:58 Библиотека кодирования : libebml v1.3.0 + libmatroska v1.4.0

Видео Идентификатор : 1 Формат : AVC Формат/Информация : Advanced Video Codec Профиль формата : High@L4.1 Параметр CABAC формата : Да Параметр ReFrames формата : 10 кадров Идентификатор кодека : V_MPEG4/ISO/AVC Продолжительность : 1 ч. 26 м. Битрейт : 2726 Кбит/сек Ширина : 1152 пикселя Высота : 480 пикселей Соотношение сторон : 2,40:1 Режим частоты кадров : Постоянный Частота кадров : 23,976 (24000/1001) кадра/сек Цветовое пространство : YUV Субдискретизация насыщенности : 4:2:0 Битовая глубина : 8 бит Тип развёртки : Прогрессивная Бит/(Пиксели*Кадры) : 0.206 Размер потока : 1,60 Гбайт (75%) Заголовок : potroks Библиотека кодирования : x264 core 148 r2705M 3f5ed56 Настройки программы : cabac=1 / ref=10 / deblock=1:-2:-2 / analyse=0x3:0x133 / me=umh / subme=11 / psy=1 / psy_rd=1.04:0.10 / mixed_ref=1 / me_range=48 / chroma_me=1 / trellis=2 / 8x8dct=1 / cqm=0 / deadzone=21,11 / fast_pskip=0 / chroma_qp_offset=-3 / threads=9 / lookahead_threads=2 / sliced_threads=0 / nr=0 / decimate=0 / interlaced=0 / bluray_compat=0 / constrained_intra=0 / bframes=11 / b_pyramid=2 / b_adapt=2 / b_bias=0 / direct=3 / weightb=1 / open_gop=0 / weightp=2 / keyint=240 / keyint_min=23 / scenecut=40 / intra_refresh=0 / rc_lookahead=100 / rc=2pass / mbtree=0 / bitrate=2726 / ratetol=1.0 / qcomp=0.70 / qpmin=1 / qpmax=69 / qpstep=4 / cplxblur=20.0 / qblur=0.5 / vbv_maxrate=50000 / vbv_bufsize=60000 / nal_hrd=none / filler=0 / ip_ratio=1.40 / pb_ratio=1.30 / aq=1:0.75 Язык : English Default : Да Forced : Нет

Аудио #1 Идентификатор : 2 Формат : AC-3 Формат/Информация : Audio Coding 3 Расширение режима : CM (complete main) Параметр Endianness формата : Big Идентификатор кодека : A_AC3 Продолжительность : 1 ч. 26 м. Вид битрейта : Постоянный Битрейт : 384 Кбит/сек Каналы : 6 каналов Расположение каналов : Front: L C R, Side: L R, LFE Частота : 48,0 КГц Частота кадров : 31,250 кадров/сек (1536 spf) Метод сжатия : С потерями Задержка видео : 11 с. Размер потока : 237 Мбайт (11%) Заголовок : Dub | DD 5.1 @ 384 kbps - iTunes Язык : Russian Default : Да Forced : Нет

Аудио #2 Идентификатор : 3 Формат : AC-3 Формат/Информация : Audio Coding 3 Расширение режима : CM (complete main) Параметр Endianness формата : Big Идентификатор кодека : A_AC3 Продолжительность : 1 ч. 26 м. Вид битрейта : Постоянный Битрейт : 448 Кбит/сек Каналы : 6 каналов Расположение каналов : Front: L C R, Side: L R, LFE Частота : 48,0 КГц Частота кадров : 31,250 кадров/сек (1536 spf) Метод сжатия : С потерями Размер потока : 276 Мбайт (13%) Заголовок : Original | DD 5.1 @ 448 kbps Язык : English Default : Нет Forced : Нет

Текст Идентификатор : 4 Формат : UTF-8 Идентификатор кодека : S_TEXT/UTF8 Идентификатор кодека/Информация : UTF-8 Plain Text Язык : English Default : Нет Forced : Нет

Меню 00:00:00.000 : :Chapter 1 00:04:56.129 : :Chapter 2 00:10:34.717 : :Chapter 3 00:15:43.108 : :Chapter 4 00:21:12.688 : :Chapter 5 00:26:17.325 : :Chapter 6 00:31:09.826 : :Chapter 7 00:36:54.086 : :Chapter 8 00:42:49.400 : :Chapter 9 00:47:46.280 : :Chapter 10 00:53:30.540 : :Chapter 11 00:59:41.619 : :Chapter 12 01:05:53.491 : :Chapter 13 01:10:21.341 : :Chapter 14 01:14:24.042 : :Chapter 15 01:19:44.446 : :Chapter 16

Релиз от: Автор рипа: potroks

mrutor.org


Смотрите также