Послесвадебный разгром avc торрент


Скачать торрент Послесвадебный разгром / A Few Less Men (2017) WEB-DLRip-AVC от ImperiaFilm | КПК

Информация о фильме Название: Послесвадебный разгромОригинальное название: A Few Less MenГод выхода: 2017Жанр: комедияРежиссер: Марк ЛампреллВ ролях: Дакре Монтгомери, Завьер Сэмюэл, Крис Маршалл, Райан Корр, Кевин Бишоп, Саша Хорлер, Линетт Каррен, Дебора Мэйлман, Хлоя Херст, Шэйн Джейкобсон

О фильме: Продолжение похождений бедовых друзей-англичан в Австралии. На сей раз незадачливой троице Дэвиду, Тому и Грэму предстоит через всю страну перевозить гроб с покойным приятелем после того, как их самолет делает непредвиденную высадку в глухой глубинке.

Выпущено: Австралия / Gorean FilmsПродолжительность: 01:28:12Озвучивание: Дубляж, iTunes Russia

ФайлФормат: MP4Качество: WEB-DLRip-AVC \| КПКВидео: Н.264, 640x268 (2,40:1), 25.000 fps, 500 KbpsЗвук: AAC LC, 48.0 KHz, 2 ch, 128 KbpsСубтитры: Нет

MI

Общее Полное имя : C:UsersАлександрDesktopфильмA.Few.Less.Men.2017.ImperiaFilm.mp4 Формат : MPEG-4 Профиль формата : Base Media Идентификатор кодека : isom (isom/avc1/iso6) Размер файла : 399 Мбайт Продолжительность : 1 ч. 28 м. Режим общего битрейта : Переменный Общий поток : 632 Кбит/сек Дата кодирования : UTC 2017-05-20 08:04:51 Дата пометки : UTC 2017-05-20 08:04:51

Видео Идентификатор : 1 Формат : AVC Формат/Информация : Advanced Video Codec Профиль формата : High@L4.1 Параметр CABAC формата : Да Параметр ReFrames формата : 10 кадров Идентификатор кодека : avc1 Идентификатор кодека/Информация : Advanced Video Coding Продолжительность : 1 ч. 28 м. Битрейт : 500 Кбит/сек Максимальный битрейт : 1881 Кбит/сек Ширина : 640 пикселей Высота : 268 пикселей Соотношение сторон : 2,40:1 Режим частоты кадров : Постоянный Частота кадров : 25,000 кадров/сек Цветовое пространство : YUV Субдискретизация насыщенности : 4:2:0 Битовая глубина : 8 бит Тип развёртки : Прогрессивная Бит/(Пиксели*Кадры) : 0.117 Размер потока : 315 Мбайт (79%) Заголовок : 264@GPAC0.5.2-DEV-rev248-g39d5978-master Библиотека кодирования : x264 core 146 r2538 121396c Настройки программы : cabac=1 / ref=10 / deblock=1:-3:-3 / analyse=0x3:0x113 / me=umh / subme=11 / psy=1 / psy_rd=1.00:0.00 / mixed_ref=1 / me_range=48 / chroma_me=1 / trellis=2 / 8x8dct=1 / cqm=0 / deadzone=21,11 / fast_pskip=0 / chroma_qp_offset=-2 / threads=6 / lookahead_threads=1 / sliced_threads=0 / nr=0 / decimate=0 / interlaced=0 / bluray_compat=0 / constrained_intra=0 / bframes=10 / b_pyramid=2 / b_adapt=2 / b_bias=0 / direct=3 / weightb=1 / open_gop=0 / weightp=2 / keyint=240 / keyint_min=24 / scenecut=40 / intra_refresh=0 / rc_lookahead=40 / rc=2pass / mbtree=0 / bitrate=500 / ratetol=1.0 / qcomp=0.60 / qpmin=0 / qpmax=69 / qpstep=4 / cplxblur=20.0 / qblur=0.5 / vbv_maxrate=14000 / vbv_bufsize=14000 / nal_hrd=none / filler=0 / ip_ratio=1.40 / pb_ratio=1.30 / aq=1:1.00 Дата кодирования : UTC 2017-05-20 08:04:51 Дата пометки : UTC 2017-05-20 08:05:08

Аудио Идентификатор : 2 Формат : AAC Формат/Информация : Advanced Audio Codec Профиль формата : LC Идентификатор кодека : 40 Продолжительность : 1 ч. 28 м. Вид битрейта : Переменный Битрейт : 128 Кбит/сек Максимальный битрейт : 149 Кбит/сек Каналы : 2 канала Расположение каналов : Front: L R Частота : 48,0 КГц Частота кадров : 46,875 кадров/сек (1024 spf) Метод сжатия : С потерями Размер потока : 80,7 Мбайт (20%) Дата кодирования : UTC 2017-05-20 04:57:20 Дата пометки : UTC 2017-05-20 08:05:08

Релиз от:

krutor.org

Скачать торрент Послесвадебный разгром / A Few Less Men (2016) WEB-DLRip-AVC от OlLanDGroup

Послесвадебный разгром / A Few Less Men«Убойная поездочка!»

Год выпуска: 2016Страна: АвстралияПроизводство: Gorean FilmsЖанр: Комедия

Режиссёр: Марк ЛампреллВ ролях: Дакре Монтгомери, Завьер Сэмюэл, Крис Маршалл, Райан Корр, Кевин Бишоп, Саша Хорлер, Линетт Каррен, Дебора Мэйлман, Хлоя Херст, Шэйн Джейкобсон

Перевод: Дублированный | iTunesСубтитры: Нет

Описание: Продолжение похождений бедовых друзей-англичан в Австралии. На сей раз незадачливой троице Дэвиду, Тому и Грэму предстоит через всю страну перевозить гроб с покойным приятелем после того, как их самолет делает непредвиденную высадку в глухой глубинке.

Качество: WEB-DLRip-AVCПродолжительность: 01:28:12

Формат: MKVВидео кодек: MPEG-4 AVCАудио кодек: AC3Видео: 1024x428 (2.40:1), 25,000 fps, x264 ~2096 kbps avg, 0.191 bit/pixelАудио: 48 kHz, AC3 Dolby Digital, 3/2 (L,C,R,l,r) + LFE ch, ~384.00 kbps avg | RUS (iTunes)

Дата премьеры (мир): 9 марта 2017Дата премьеры (РФ): 30 марта 2017, «Вольга»

Релиз от: Rip by:

MediaInfo

Общее Уникальный идентификатор : 219675900455984768619725345004740132663 (0xA5440A1B05EF69949E842EAC21EFBF37) Полное имя : D:A.Few.Less.Men.2017.WEB-DLRip(AVC).OlLanDGroup.mkv Формат : Matroska Версия формата : Version 2 Размер файла : 1,53 Гбайт Продолжительность : 1 ч. 28 м. Общий поток : 2482 Кбит/сек Название фильма : A.Few.Less.Men.2017 #TorpedoUK# Дата кодирования : UTC 2017-05-19 14:02:06 Программа кодирования : mkvmerge v7.8.0 ('River Man') 32bit built on Apr 3 2015 12:11:22 Библиотека кодирования : libebml v1.3.1 + libmatroska v1.4.2

Видео Идентификатор : 1 Формат : AVC Формат/Информация : Advanced Video Codec Профиль формата : High@L4.1 Параметр CABAC формата : Да Параметр ReFrames формата : 10 кадров Идентификатор кодека : V_MPEG4/ISO/AVC Продолжительность : 1 ч. 28 м. Битрейт : 2096 Кбит/сек Ширина : 1024 пикселя Высота : 428 пикселей Соотношение сторон : 2,40:1 Режим частоты кадров : Постоянный Частота кадров : 25,000 кадров/сек Цветовое пространство : YUV Субдискретизация насыщенности : 4:2:0 Битовая глубина : 8 бит Тип развёртки : Прогрессивная Бит/(Пиксели*Кадры) : 0.191 Размер потока : 1,26 Гбайт (83%) Библиотека кодирования : x264 core 146 r2538 121396c Настройки программы : cabac=1 / ref=10 / deblock=1:-3:-3 / analyse=0x3:0x133 / me=umh / subme=11 / psy=1 / psy_rd=1.00:0.07 / mixed_ref=1 / me_range=48 / chroma_me=1 / trellis=2 / 8x8dct=1 / cqm=0 / deadzone=21,11 / fast_pskip=0 / chroma_qp_offset=-3 / threads=6 / lookahead_threads=1 / sliced_threads=0 / nr=0 / decimate=0 / interlaced=0 / bluray_compat=0 / constrained_intra=0 / bframes=10 / b_pyramid=2 / b_adapt=2 / b_bias=0 / direct=3 / weightb=1 / open_gop=0 / weightp=2 / keyint=250 / keyint_min=25 / scenecut=40 / intra_refresh=0 / rc_lookahead=40 / rc=2pass / mbtree=0 / bitrate=2096 / ratetol=1.0 / qcomp=0.60 / qpmin=0 / qpmax=69 / qpstep=4 / cplxblur=20.0 / qblur=0.5 / vbv_maxrate=50000 / vbv_bufsize=62500 / nal_hrd=none / filler=0 / ip_ratio=1.40 / pb_ratio=1.30 / aq=1:1.00 Язык : English Default : Да Forced : Нет

Аудио Идентификатор : 2 Формат : AC-3 Формат/Информация : Audio Coding 3 Расширение режима : CM (complete main) Параметр Endianness формата : Big Идентификатор кодека : A_AC3 Продолжительность : 1 ч. 28 м. Вид битрейта : Постоянный Битрейт : 384 Кбит/сек Каналы : 6 каналов Расположение каналов : Front: L C R, Side: L R, LFE Частота : 48,0 КГц Частота кадров : 31,250 кадров/сек (1536 spf) Битовая глубина : 16 бит Метод сжатия : С потерями Размер потока : 242 Мбайт (15%) Заголовок : AC3 5.1 @ 384 kbps - DUB, iTunes Язык : Russian Default : Да Forced : Нет

Меню 00:00:00.000 : en:1 00:08:04.360 : en:2 00:11:31.640 : en:3 00:17:27.640 : en:4 00:23:15.960 : en:5 00:29:42.960 : en:6 00:34:33.600 : en:7 00:38:56.840 : en:8 00:44:03.600 : en:9 00:48:47.480 : en:10 00:53:11.160 : en:11 00:58:13.440 : en:12 01:03:41.960 : en:13 01:09:10.880 : en:14 01:12:49.640 : en:15

mrutor.org

Скачать торрент Послесвадебный разгром / A Few Less Men (2016) WEB-DLRip-AVC от OlLanDGroup

Послесвадебный разгром / A Few Less Men«Убойная поездочка!»

Год выпуска: 2016Страна: АвстралияПроизводство: Gorean FilmsЖанр: Комедия

Режиссёр: Марк ЛампреллВ ролях: Дакре Монтгомери, Завьер Сэмюэл, Крис Маршалл, Райан Корр, Кевин Бишоп, Саша Хорлер, Линетт Каррен, Дебора Мэйлман, Хлоя Херст, Шэйн Джейкобсон

Перевод: Дублированный | iTunesСубтитры: Нет

Описание: Продолжение похождений бедовых друзей-англичан в Австралии. На сей раз незадачливой троице Дэвиду, Тому и Грэму предстоит через всю страну перевозить гроб с покойным приятелем после того, как их самолет делает непредвиденную высадку в глухой глубинке.

Качество: WEB-DLRip-AVCПродолжительность: 01:28:12

Формат: MKVВидео кодек: MPEG-4 AVCАудио кодек: AC3Видео: 1024x428 (2.40:1), 25,000 fps, x264 ~2096 kbps avg, 0.191 bit/pixelАудио: 48 kHz, AC3 Dolby Digital, 3/2 (L,C,R,l,r) + LFE ch, ~384.00 kbps avg | RUS (iTunes)

Дата премьеры (мир): 9 марта 2017Дата премьеры (РФ): 30 марта 2017, «Вольга»

Релиз от: Rip by:

MediaInfo

Общее Уникальный идентификатор : 219675900455984768619725345004740132663 (0xA5440A1B05EF69949E842EAC21EFBF37) Полное имя : D:A.Few.Less.Men.2017.WEB-DLRip(AVC).OlLanDGroup.mkv Формат : Matroska Версия формата : Version 2 Размер файла : 1,53 Гбайт Продолжительность : 1 ч. 28 м. Общий поток : 2482 Кбит/сек Название фильма : A.Few.Less.Men.2017 #TorpedoUK# Дата кодирования : UTC 2017-05-19 14:02:06 Программа кодирования : mkvmerge v7.8.0 ('River Man') 32bit built on Apr 3 2015 12:11:22 Библиотека кодирования : libebml v1.3.1 + libmatroska v1.4.2

Видео Идентификатор : 1 Формат : AVC Формат/Информация : Advanced Video Codec Профиль формата : High@L4.1 Параметр CABAC формата : Да Параметр ReFrames формата : 10 кадров Идентификатор кодека : V_MPEG4/ISO/AVC Продолжительность : 1 ч. 28 м. Битрейт : 2096 Кбит/сек Ширина : 1024 пикселя Высота : 428 пикселей Соотношение сторон : 2,40:1 Режим частоты кадров : Постоянный Частота кадров : 25,000 кадров/сек Цветовое пространство : YUV Субдискретизация насыщенности : 4:2:0 Битовая глубина : 8 бит Тип развёртки : Прогрессивная Бит/(Пиксели*Кадры) : 0.191 Размер потока : 1,26 Гбайт (83%) Библиотека кодирования : x264 core 146 r2538 121396c Настройки программы : cabac=1 / ref=10 / deblock=1:-3:-3 / analyse=0x3:0x133 / me=umh / subme=11 / psy=1 / psy_rd=1.00:0.07 / mixed_ref=1 / me_range=48 / chroma_me=1 / trellis=2 / 8x8dct=1 / cqm=0 / deadzone=21,11 / fast_pskip=0 / chroma_qp_offset=-3 / threads=6 / lookahead_threads=1 / sliced_threads=0 / nr=0 / decimate=0 / interlaced=0 / bluray_compat=0 / constrained_intra=0 / bframes=10 / b_pyramid=2 / b_adapt=2 / b_bias=0 / direct=3 / weightb=1 / open_gop=0 / weightp=2 / keyint=250 / keyint_min=25 / scenecut=40 / intra_refresh=0 / rc_lookahead=40 / rc=2pass / mbtree=0 / bitrate=2096 / ratetol=1.0 / qcomp=0.60 / qpmin=0 / qpmax=69 / qpstep=4 / cplxblur=20.0 / qblur=0.5 / vbv_maxrate=50000 / vbv_bufsize=62500 / nal_hrd=none / filler=0 / ip_ratio=1.40 / pb_ratio=1.30 / aq=1:1.00 Язык : English Default : Да Forced : Нет

Аудио Идентификатор : 2 Формат : AC-3 Формат/Информация : Audio Coding 3 Расширение режима : CM (complete main) Параметр Endianness формата : Big Идентификатор кодека : A_AC3 Продолжительность : 1 ч. 28 м. Вид битрейта : Постоянный Битрейт : 384 Кбит/сек Каналы : 6 каналов Расположение каналов : Front: L C R, Side: L R, LFE Частота : 48,0 КГц Частота кадров : 31,250 кадров/сек (1536 spf) Битовая глубина : 16 бит Метод сжатия : С потерями Размер потока : 242 Мбайт (15%) Заголовок : AC3 5.1 @ 384 kbps - DUB, iTunes Язык : Russian Default : Да Forced : Нет

Меню 00:00:00.000 : en:1 00:08:04.360 : en:2 00:11:31.640 : en:3 00:17:27.640 : en:4 00:23:15.960 : en:5 00:29:42.960 : en:6 00:34:33.600 : en:7 00:38:56.840 : en:8 00:44:03.600 : en:9 00:48:47.480 : en:10 00:53:11.160 : en:11 00:58:13.440 : en:12 01:03:41.960 : en:13 01:09:10.880 : en:14 01:12:49.640 : en:15

krutor.org

Скачать торрент Послесвадебный разгром / A Few Less Men (2017) WEB-DLRip-AVC

Информация о фильме Название: Послесвадебный разгромОригинальное название: A Few Less MenГод выхода: 2017Жанр: комедияРежиссер: Марк ЛампреллВ ролях: Дакре Монтгомери, Завьер Сэмюэл, Крис Маршалл, Райан Корр, Кевин Бишоп, Саша Хорлер, Линетт Каррен, Дебора Мэйлман, Хлоя Херст, Шэйн Джейкобсон

О фильме: Продолжение похождений бедовых друзей-англичан в Австралии. На сей раз незадачливой троице Дэвиду, Тому и Грэму предстоит через всю страну перевозить гроб с покойным приятелем после того, как их самолет делает непредвиденную высадку в глухой глубинке.

Выпущено: Австралия / Gorean FilmsПродолжительность: 01:28:12Озвучивание: Дубляж, iTunes Russia

ФайлФормат: MKVВидео: 960x402 at 25.000 fps, [email protected], ~1053 kbpsAудио#1: Russian: AAC, 2ch, ~64.00 kbps |Дубляж, iTunes Russia|Aудио#2: Ukrainian: AAC, 2ch, ~64.00 kbps |Многоголосый закадровый, iTunes Russia|Субтитры: None

Дополнительно

ЦитатаКто-то писал:Сохранены оригинальные главы.

M/I

General Unique ID : 248573681952927599215710171928329961277 (0xBB018CBC26F021CFB4C6C877A9EBBF3D) Complete name : C:UsersUserDesktopПослесвадебный разгром.(2017).WEB_DLRIP-AVC.[-=DoMiNo=-].mkv Format : Matroska Format version : Version 4 / Version 2 File size : 748 MiB Duration : 1 h 28 min Overall bit rate : 1 186 kb/s Movie name : Послесвадебный разгром Deion : Продолжение похождений бедовых друзей-англичан в Австралии. На сей раз незадачливой троице Дэвиду, Тому и Грэму предстоит через всю страну перевозить гроб с покойным приятелем после того, как их самолет делает непредвиденную высадку в глухой глубинке. Writing application : XviD4PSP 7.0.382 DAILY Writing library : Lavf57.41.100 Attachments : poster.jpg ACTORS : Дакре Монтгомери, Завьер Сэмюэл, Крис Маршалл, Райан Корр, Кевин Бишоп, Саша Хорлер, Линетт Каррен, Дебора Мэйлман, Хлоя Херст, Шэйн Джейкобсон, Карли Рэй Гроган, Саскиа Хемпел, Пип Эдвардс, Джереми Симс, Памела Шоу, Джеймс Хельм, Софи Уайтлок, Келси Андерсон, Эмили Ховард, Николь Крисп, Sarah Joy, Эмилия Эффенди, Джошуа Чарльз Дейв, Ли Янковский, Джеймс Баклэнд, Стивен Мерфи, Бен Матей, Джоно Уоттс, Гари Оуэнс, Питер Уильямс, Кирстен Корунна, Анна Филп, Уоррен Лайонс, Михаэла Хили, Hurb Jephasun, Нина Далин, Jachike Ikealumba, Мэгги Мейер, Таня Керквлиет COMPOSER : Дэвид Хиршфелдер COUNTRY : Австралия DATE : 2016 DIRECTOR : Марк Лампрелл ENCODING_INFO : MATROSKA,WEBM > MKV Произвольный / h364 > X264 VBR-2P 1053kbps Произвольный / AC3 > AAC CBR 64kbps HE / AC3 > AAC CBR 64kbps HE GENRE : комедияHD_VIDEO : 1 IMDB_RATING : 6.10 ITUNEXTC : ru-movie|18+|400| MEDIA_TYPE : 9 ORIGINAL_TITLE : A Few Less Men PRODUCER : Таня Чэмберс, Лоуренс Малкин, Шеа Сталлингс, Дин Крэйг, Дэниэл Файндлей, Майя Кэвэна, Джош Кесселман, Дэвид Лайтфут, Джеймс Майкл Вернон RATING : 5.121 WRITER : Дин Крэйг

Video ID : 1 Format : AVC Format/Info : Advanced Video Codec Format profile : High@L4.1 Format settings, CABAC : Yes Format settings, ReFrames : 12 frames Codec ID : V_MPEG4/ISO/AVC Duration : 1 h 28 min Nominal bit rate : 1 053 kb/s Width : 960 pixels Height : 402 pixels Display aspect ratio : 2.40:1 Frame rate mode : Constant Frame rate : 25.000 FPS Color space : YUV Chroma subsampling : 4:2:0 Bit depth : 8 bits Scan type : Progressive Bits/(Pixel*Frame) : 0.109 Title : RIP_BY_-=DoMiNo=- Writing library : x264 core 148 r2762M 90a61ec Encoding settings : cabac=1 / ref=12 / deblock=1:-3:-3 / analyse=0x3:0x133 / me=umh / subme=11 / psy=1 / psy_rd=1.00:0.10 / mixed_ref=1 / me_range=32 / chroma_me=1 / trellis=2 / 8x8dct=1 / cqm=0 / deadzone=21,11 / fast_pskip=0 / chroma_qp_offset=-3 / threads=6 / lookahead_threads=1 / sliced_threads=0 / nr=0 / decimate=1 / interlaced=0 / bluray_compat=0 / constrained_intra=0 / bframes=11 / b_pyramid=2 / b_adapt=2 / b_bias=0 / direct=3 / weightb=1 / open_gop=0 / weightp=2 / keyint=250 / keyint_min=25 / scenecut=40 / intra_refresh=0 / rc_lookahead=60 / rc=2pass / mbtree=1 / bitrate=1053 / ratetol=1.0 / qcomp=0.65 / qpmin=0 / qpmax=69 / qpstep=4 / cplxblur=20.0 / qblur=0.5 / ip_ratio=1.40 / aq=1:1.00 Language : English Default : Yes Forced : No Color range : Limited Color primaries : BT.709 Transfer characteristics : BT.709 Matrix coefficients : BT.709 DURATION : 01:28:11.960000000

Audio #1 ID : 2 Format : AAC Format/Info : Advanced Audio Codec Format profile : HE-AAC / LC Codec ID : A_AAC Duration : 1 h 28 min Channel(s) : 2 channels Channel positions : Front: L R Sampling rate : 48.0 kHz / 24.0 kHz Frame rate : 23.438 FPS (1024 spf) Compression mode : Lossy Title : RUS - DUB, iTunes Language : Russian Default : Yes Forced : No DURATION : 01:28:12.032000000

Audio #2 ID : 3 Format : AAC Format/Info : Advanced Audio Codec Format profile : HE-AAC / LC Codec ID : A_AAC Duration : 1 h 28 min Channel(s) : 2 channels Channel positions : Front: L R Sampling rate : 48.0 kHz / 24.0 kHz Frame rate : 23.438 FPS (1024 spf) Compression mode : Lossy Title : UKR - MVO, iTunes Language : Ukrainian Default : No Forced : No DURATION : 01:28:12.032000000

Menu 00:00:00.000 : :1 00:08:04.360 : :2 00:11:31.640 : :3 00:17:27.640 : :4 00:23:15.960 : :5 00:29:42.960 : :6 00:34:33.600 : :7 00:38:56.840 : :8 00:44:03.600 : :9 00:48:47.480 : :10 00:53:11.160 : :11 00:58:13.440 : :12 01:03:41.960 : :13 01:09:10.880 : :14 01:12:49.640 : :15

mrutor.org

Скачать торрент Послесвадебный разгром / A Few Less Men (2017) WEB-DLRip-AVC

Информация о фильме Название: Послесвадебный разгромОригинальное название: A Few Less MenГод выхода: 2017Жанр: комедияРежиссер: Марк ЛампреллВ ролях: Дакре Монтгомери, Завьер Сэмюэл, Крис Маршалл, Райан Корр, Кевин Бишоп, Саша Хорлер, Линетт Каррен, Дебора Мэйлман, Хлоя Херст, Шэйн Джейкобсон

О фильме: Продолжение похождений бедовых друзей-англичан в Австралии. На сей раз незадачливой троице Дэвиду, Тому и Грэму предстоит через всю страну перевозить гроб с покойным приятелем после того, как их самолет делает непредвиденную высадку в глухой глубинке.

Выпущено: Австралия / Gorean FilmsПродолжительность: 01:28:12Озвучивание: Дубляж, iTunes Russia

ФайлФормат: MKVВидео: 960x402 at 25.000 fps, [email protected], ~1053 kbpsAудио#1: Russian: AAC, 2ch, ~64.00 kbps |Дубляж, iTunes Russia|Aудио#2: Ukrainian: AAC, 2ch, ~64.00 kbps |Многоголосый закадровый, iTunes Russia|Субтитры: None

Дополнительно

ЦитатаКто-то писал:Сохранены оригинальные главы.

M/I

General Unique ID : 248573681952927599215710171928329961277 (0xBB018CBC26F021CFB4C6C877A9EBBF3D) Complete name : C:UsersUserDesktopПослесвадебный разгром.(2017).WEB_DLRIP-AVC.[-=DoMiNo=-].mkv Format : Matroska Format version : Version 4 / Version 2 File size : 748 MiB Duration : 1 h 28 min Overall bit rate : 1 186 kb/s Movie name : Послесвадебный разгром Deion : Продолжение похождений бедовых друзей-англичан в Австралии. На сей раз незадачливой троице Дэвиду, Тому и Грэму предстоит через всю страну перевозить гроб с покойным приятелем после того, как их самолет делает непредвиденную высадку в глухой глубинке. Writing application : XviD4PSP 7.0.382 DAILY Writing library : Lavf57.41.100 Attachments : poster.jpg ACTORS : Дакре Монтгомери, Завьер Сэмюэл, Крис Маршалл, Райан Корр, Кевин Бишоп, Саша Хорлер, Линетт Каррен, Дебора Мэйлман, Хлоя Херст, Шэйн Джейкобсон, Карли Рэй Гроган, Саскиа Хемпел, Пип Эдвардс, Джереми Симс, Памела Шоу, Джеймс Хельм, Софи Уайтлок, Келси Андерсон, Эмили Ховард, Николь Крисп, Sarah Joy, Эмилия Эффенди, Джошуа Чарльз Дейв, Ли Янковский, Джеймс Баклэнд, Стивен Мерфи, Бен Матей, Джоно Уоттс, Гари Оуэнс, Питер Уильямс, Кирстен Корунна, Анна Филп, Уоррен Лайонс, Михаэла Хили, Hurb Jephasun, Нина Далин, Jachike Ikealumba, Мэгги Мейер, Таня Керквлиет COMPOSER : Дэвид Хиршфелдер COUNTRY : Австралия DATE : 2016 DIRECTOR : Марк Лампрелл ENCODING_INFO : MATROSKA,WEBM > MKV Произвольный / h364 > X264 VBR-2P 1053kbps Произвольный / AC3 > AAC CBR 64kbps HE / AC3 > AAC CBR 64kbps HE GENRE : комедияHD_VIDEO : 1 IMDB_RATING : 6.10 ITUNEXTC : ru-movie|18+|400| MEDIA_TYPE : 9 ORIGINAL_TITLE : A Few Less Men PRODUCER : Таня Чэмберс, Лоуренс Малкин, Шеа Сталлингс, Дин Крэйг, Дэниэл Файндлей, Майя Кэвэна, Джош Кесселман, Дэвид Лайтфут, Джеймс Майкл Вернон RATING : 5.121 WRITER : Дин Крэйг

Video ID : 1 Format : AVC Format/Info : Advanced Video Codec Format profile : High@L4.1 Format settings, CABAC : Yes Format settings, ReFrames : 12 frames Codec ID : V_MPEG4/ISO/AVC Duration : 1 h 28 min Nominal bit rate : 1 053 kb/s Width : 960 pixels Height : 402 pixels Display aspect ratio : 2.40:1 Frame rate mode : Constant Frame rate : 25.000 FPS Color space : YUV Chroma subsampling : 4:2:0 Bit depth : 8 bits Scan type : Progressive Bits/(Pixel*Frame) : 0.109 Title : RIP_BY_-=DoMiNo=- Writing library : x264 core 148 r2762M 90a61ec Encoding settings : cabac=1 / ref=12 / deblock=1:-3:-3 / analyse=0x3:0x133 / me=umh / subme=11 / psy=1 / psy_rd=1.00:0.10 / mixed_ref=1 / me_range=32 / chroma_me=1 / trellis=2 / 8x8dct=1 / cqm=0 / deadzone=21,11 / fast_pskip=0 / chroma_qp_offset=-3 / threads=6 / lookahead_threads=1 / sliced_threads=0 / nr=0 / decimate=1 / interlaced=0 / bluray_compat=0 / constrained_intra=0 / bframes=11 / b_pyramid=2 / b_adapt=2 / b_bias=0 / direct=3 / weightb=1 / open_gop=0 / weightp=2 / keyint=250 / keyint_min=25 / scenecut=40 / intra_refresh=0 / rc_lookahead=60 / rc=2pass / mbtree=1 / bitrate=1053 / ratetol=1.0 / qcomp=0.65 / qpmin=0 / qpmax=69 / qpstep=4 / cplxblur=20.0 / qblur=0.5 / ip_ratio=1.40 / aq=1:1.00 Language : English Default : Yes Forced : No Color range : Limited Color primaries : BT.709 Transfer characteristics : BT.709 Matrix coefficients : BT.709 DURATION : 01:28:11.960000000

Audio #1 ID : 2 Format : AAC Format/Info : Advanced Audio Codec Format profile : HE-AAC / LC Codec ID : A_AAC Duration : 1 h 28 min Channel(s) : 2 channels Channel positions : Front: L R Sampling rate : 48.0 kHz / 24.0 kHz Frame rate : 23.438 FPS (1024 spf) Compression mode : Lossy Title : RUS - DUB, iTunes Language : Russian Default : Yes Forced : No DURATION : 01:28:12.032000000

Audio #2 ID : 3 Format : AAC Format/Info : Advanced Audio Codec Format profile : HE-AAC / LC Codec ID : A_AAC Duration : 1 h 28 min Channel(s) : 2 channels Channel positions : Front: L R Sampling rate : 48.0 kHz / 24.0 kHz Frame rate : 23.438 FPS (1024 spf) Compression mode : Lossy Title : UKR - MVO, iTunes Language : Ukrainian Default : No Forced : No DURATION : 01:28:12.032000000

Menu 00:00:00.000 : :1 00:08:04.360 : :2 00:11:31.640 : :3 00:17:27.640 : :4 00:23:15.960 : :5 00:29:42.960 : :6 00:34:33.600 : :7 00:38:56.840 : :8 00:44:03.600 : :9 00:48:47.480 : :10 00:53:11.160 : :11 00:58:13.440 : :12 01:03:41.960 : :13 01:09:10.880 : :14 01:12:49.640 : :15

krutor.org

Скачать торрент Послесвадебный разгром / A Few Less Men (2017) WEB-DLRip-AVC от ImperiaFilm | КПК

Информация о фильме Название: Послесвадебный разгромОригинальное название: A Few Less MenГод выхода: 2017Жанр: комедияРежиссер: Марк ЛампреллВ ролях: Дакре Монтгомери, Завьер Сэмюэл, Крис Маршалл, Райан Корр, Кевин Бишоп, Саша Хорлер, Линетт Каррен, Дебора Мэйлман, Хлоя Херст, Шэйн Джейкобсон

О фильме: Продолжение похождений бедовых друзей-англичан в Австралии. На сей раз незадачливой троице Дэвиду, Тому и Грэму предстоит через всю страну перевозить гроб с покойным приятелем после того, как их самолет делает непредвиденную высадку в глухой глубинке.

Выпущено: Австралия / Gorean FilmsПродолжительность: 01:28:12Озвучивание: Дубляж, iTunes Russia

ФайлФормат: MP4Качество: WEB-DLRip-AVC \| КПКВидео: Н.264, 640x268 (2,40:1), 25.000 fps, 500 KbpsЗвук: AAC LC, 48.0 KHz, 2 ch, 128 KbpsСубтитры: Нет

MI

Общее Полное имя : C:UsersАлександрDesktopфильмA.Few.Less.Men.2017.ImperiaFilm.mp4 Формат : MPEG-4 Профиль формата : Base Media Идентификатор кодека : isom (isom/avc1/iso6) Размер файла : 399 Мбайт Продолжительность : 1 ч. 28 м. Режим общего битрейта : Переменный Общий поток : 632 Кбит/сек Дата кодирования : UTC 2017-05-20 08:04:51 Дата пометки : UTC 2017-05-20 08:04:51

Видео Идентификатор : 1 Формат : AVC Формат/Информация : Advanced Video Codec Профиль формата : High@L4.1 Параметр CABAC формата : Да Параметр ReFrames формата : 10 кадров Идентификатор кодека : avc1 Идентификатор кодека/Информация : Advanced Video Coding Продолжительность : 1 ч. 28 м. Битрейт : 500 Кбит/сек Максимальный битрейт : 1881 Кбит/сек Ширина : 640 пикселей Высота : 268 пикселей Соотношение сторон : 2,40:1 Режим частоты кадров : Постоянный Частота кадров : 25,000 кадров/сек Цветовое пространство : YUV Субдискретизация насыщенности : 4:2:0 Битовая глубина : 8 бит Тип развёртки : Прогрессивная Бит/(Пиксели*Кадры) : 0.117 Размер потока : 315 Мбайт (79%) Заголовок : 264@GPAC0.5.2-DEV-rev248-g39d5978-master Библиотека кодирования : x264 core 146 r2538 121396c Настройки программы : cabac=1 / ref=10 / deblock=1:-3:-3 / analyse=0x3:0x113 / me=umh / subme=11 / psy=1 / psy_rd=1.00:0.00 / mixed_ref=1 / me_range=48 / chroma_me=1 / trellis=2 / 8x8dct=1 / cqm=0 / deadzone=21,11 / fast_pskip=0 / chroma_qp_offset=-2 / threads=6 / lookahead_threads=1 / sliced_threads=0 / nr=0 / decimate=0 / interlaced=0 / bluray_compat=0 / constrained_intra=0 / bframes=10 / b_pyramid=2 / b_adapt=2 / b_bias=0 / direct=3 / weightb=1 / open_gop=0 / weightp=2 / keyint=240 / keyint_min=24 / scenecut=40 / intra_refresh=0 / rc_lookahead=40 / rc=2pass / mbtree=0 / bitrate=500 / ratetol=1.0 / qcomp=0.60 / qpmin=0 / qpmax=69 / qpstep=4 / cplxblur=20.0 / qblur=0.5 / vbv_maxrate=14000 / vbv_bufsize=14000 / nal_hrd=none / filler=0 / ip_ratio=1.40 / pb_ratio=1.30 / aq=1:1.00 Дата кодирования : UTC 2017-05-20 08:04:51 Дата пометки : UTC 2017-05-20 08:05:08

Аудио Идентификатор : 2 Формат : AAC Формат/Информация : Advanced Audio Codec Профиль формата : LC Идентификатор кодека : 40 Продолжительность : 1 ч. 28 м. Вид битрейта : Переменный Битрейт : 128 Кбит/сек Максимальный битрейт : 149 Кбит/сек Каналы : 2 канала Расположение каналов : Front: L R Частота : 48,0 КГц Частота кадров : 46,875 кадров/сек (1024 spf) Метод сжатия : С потерями Размер потока : 80,7 Мбайт (20%) Дата кодирования : UTC 2017-05-20 04:57:20 Дата пометки : UTC 2017-05-20 08:05:08

Релиз от:

mrutor.org

2016 hd, 1080

!

: : A Few Less Men : 2016: : : , , , , , , , , ,

IMDB: 5.9/10 (109 ) : 4.8/10 (1 165 )

:- . , , .

: : 1 32 : | iTunes

: AVI: WEB-DLRip

981

912

udp://shubt.net:2710

78 21 74

udp://bt.megapeer.org:6969

56 84 27

udp://kaztorka.org:2710

61 23 16

http://tracker.filetracker.pl:8089/announce

56 82 11

http://tracker2.wasabii.com.tw:6969/announce

60 57 10

http://tracker.grepler.com:6969/announce

49 53 24

http://125.227.35.196:6969/announce

91 87 91

http://tracker.tiny-vps.com:6969/announce

14 47 71

http://87.248.186.252:8080/announce

3 40 56

http://210.244.71.25:6969/announce

200 8 319

http://46.4.109.148:6969/announce

69 50 10

udp://46.148.18.250:2710

17 100 84

http://tracker.dler.org:6969/announce

100 68 26

udp://[2001:67c:28f8:92::1111:1]:2710

47 93 49

udp://ipv6.leechers-paradise.org:6969

80 99 47

1,46 Gb

566

A.Few.Less.Men.2017.WEB-DLRip.1.46Gb.MegaPeer.avi (1,46 Gb)

687

715

udp://shubt.net:2710

59 38 16

http://tracker.filetracker.pl:8089/announce

46 56 76

http://tracker2.wasabii.com.tw:6969/announce

86 88 99

http://tracker.grepler.com:6969/announce

67 43 70

http://125.227.35.196:6969/announce

67 78 37

http://tracker.tiny-vps.com:6969/announce

66 45 90

http://87.248.186.252:8080/announce

39 83 82

http://210.244.71.25:6969/announce

41 1 40

http://46.4.109.148:6969/announce

81 23 23

udp://46.148.18.250:2710

22 83 40

http://tracker.dler.org:6969/announce

48 70 84

udp://[2001:67c:28f8:92::1111:1]:2710

25 31 99

udp://ipv6.leechers-paradise.org:6969

40 76 13

3,37 Gb

49

A.Few.Less.Men.2017.1080p.WEB-DL.Rus.Ukr.HDCLUB.mkv (3,37 Gb)

vtorrents.net


Смотрите также