Бал пожарных скачать торрент


rutor.org :: Бал пожарных / Horí, má panenko / The Firemen's Ball (1967) BDRip 1080p ::: Скачать торрент

Информация о фильмеНазвание: Бал пожарныхОригинальное название: Horí, má panenkoГод выхода: 1967Жанр: драма, комедияРежиссер: Милош ФорманВ ролях: Ян Вострчил, Йозеф Шебанек, Josef Valnoha, Frantisek Debelka, Йозеф Колб, Жан Стокл, Вратислав Цермак, Джозеф Ржегоржек, Вацлав Новотны, Франтишек Рейнстейн

О фильме: Много забавных ситуаций ожидает участников бала пожарных: чествование юбиляра, розыгрыш праздничной лотереи, конкурс красоты и даже... настоящий пожар!

Страна: Чехословакия, ИталияПродолжительность: 01:12:50Перевод: Профессиональный (двухгоголосый закадровый) Кармен Видео

ФайлКодек: x264Качество: BDRip (источник: BDRemux)Видео: 1480x1080 (1,370:1), 23.976 fps, 10,8 Mbps Аудио #1: AC-3, 2 ch, 256 kbps (Rus) R5, Кармен Видео Аудио #2: AC-3, 2 ch, 256 kbps (Cze) OriginalСубтитры: Русские, чешские, английские. (PGS)

Скриншоты

MI

Общее Уникальный идентификатор : 239981024752231495232317415426749578661 (0xB48AAA06C026250CA0998C9D0EA33DA5) Полное имя : E:Бал пожарных.1967.BDRip.1080p.Rus.Cze.mkv Формат : Matroska Версия формата : Version 2 Размер файла : 5,77 Гбайт Продолжительность : 1 ч. 12 м. Общий поток : 11,3 Мбит/сек Название фильма : Бал пожарных (Horн, mб panenko) 1967 Дата кодирования : UTC 2013-02-13 01:27:14 Программа кодирования : mkvmerge v5.8.0 ('No Sleep / Pillow') built on Sep 2 2012 15:37:04 Библиотека кодирования : libebml v1.2.3 + libmatroska v1.3.0

Видео Идентификатор : 1 Формат : AVC Формат/Информация : Advanced Video Codec Профиль формата : High@L4.1 Параметр CABAC формата : Да Параметр ReFrames формата : 4 кадра Идентификатор кодека : V_MPEG4/ISO/AVC Продолжительность : 1 ч. 12 м. Битрейт : 10,8 Мбит/сек Ширина : 1480 пикселей Высота : 1080 пикселей Соотношение сторон : 1,370 Режим частоты кадров : Постоянный Частота кадров : 23,976 кадра/сек Цветовое пространство : YUV Субдискретизация насыщенности : 4:2:0 Битовая глубина : 8 бит Тип развёртки : Прогрессивная Бит/(Пиксели*Кадры) : 0.282 Размер потока : 5,39 Гбайт (93%) Библиотека кодирования : x264 core 128 r2216M 198a7ea Настройки программы : cabac=1 / ref=4 / deblock=1:-2:-1 / analyse=0x3:0x133 / me=umh / subme=10 / psy=1 / psy_rd=1.00:0.00 / mixed_ref=1 / me_range=32 / chroma_me=1 / trellis=2 / 8x8dct=1 / cqm=0 / deadzone=21,11 / fast_pskip=0 / chroma_qp_offset=-2 / threads=4 / lookahead_threads=1 / sliced_threads=0 / nr=0 / decimate=0 / interlaced=0 / bluray_compat=0 / constrained_intra=0 / bframes=8 / b_pyramid=2 / b_adapt=2 / b_bias=0 / direct=3 / weightb=1 / open_gop=0 / weightp=2 / keyint=240 / keyint_min=23 / scenecut=40 / intra_refresh=0 / rc=2pass / mbtree=0 / bitrate=10800 / ratetol=1.0 / qcomp=0.60 / qpmin=10 / qpmax=69 / qpstep=4 / cplxblur=20.0 / qblur=0.5 / ip_ratio=1.40 / pb_ratio=1.30 / aq=1:1.00 Язык : Czech Default : Да Forced : Нет

Аудио #1 Идентификатор : 2 Формат : AC-3 Формат/Информация : Audio Coding 3 Расширение режима : CM (complete main) Параметр Endianness формата : Big Идентификатор кодека : A_AC3 Продолжительность : 1 ч. 12 м. Вид битрейта : Постоянный Битрейт : 256 Кбит/сек Каналы : 2 канала Расположение каналов : Front: L R Частота : 48,0 КГц Битовая глубина : 16 бит Метод сжатия : С потерями Размер потока : 133 Мбайт (2%) Заголовок : DVO, AC3 2.0, 256 kbps Язык : Russian Default : Да Forced : Нет

Аудио #2 Идентификатор : 3 Формат : AC-3 Формат/Информация : Audio Coding 3 Расширение режима : CM (complete main) Параметр Endianness формата : Big Идентификатор кодека : A_AC3 Продолжительность : 1 ч. 12 м. Вид битрейта : Постоянный Битрейт : 256 Кбит/сек Каналы : 2 канала Расположение каналов : Front: L R Частота : 48,0 КГц Битовая глубина : 16 бит Метод сжатия : С потерями Размер потока : 133 Мбайт (2%) Заголовок : Original, AC3 2.0, 256 kbps Язык : Czech Default : Нет Forced : Нет

Текст #1 Идентификатор : 4 Формат : PGS Режим смешивания : zlib Идентификатор кодека : S_HDMV/PGS Идентификатор кодека/Информация : The same subtitle format used on BDs/HD-DVDs Язык : Russian Default : Нет Forced : Нет

Текст #2 Идентификатор : 5 Формат : PGS Режим смешивания : zlib Идентификатор кодека : S_HDMV/PGS Идентификатор кодека/Информация : The same subtitle format used on BDs/HD-DVDs Язык : Czech Default : Нет Forced : Нет

Текст #3 Идентификатор : 6 Формат : PGS Режим смешивания : zlib Идентификатор кодека : S_HDMV/PGS Идентификатор кодека/Информация : The same subtitle format used on BDs/HD-DVDs Язык : English Default : Нет Forced : Нет

Меню 00:00:00.000 : en:Chapter 1 00:07:10.054 : en:Chapter 2 00:10:21.746 : en:Chapter 3 00:15:12.453 : en:Chapter 4 00:20:51.541 : en:Chapter 5 00:28:09.688 : en:Chapter 6 00:34:01.456 : en:Chapter 7 00:41:00.416 : en:Chapter 8 00:50:13.051 : en:Chapter 9 00:57:17.767 : en:Chapter 10 01:03:29.680 : en:Chapter 11 01:08:51.085 : en:Chapter 12

x264

x264 [info]: frame I:659 Avg QP:18.86 size:145533 x264 [info]: frame P:20230 Avg QP:20.92 size: 95293 x264 [info]: frame B:83886 Avg QP:23.38 size: 46188

main-rutor.org

Бал пожарных / Horí, má panenko / The Firemen's Ball (1967) BDRip 1080p

Информация о фильмеНазвание: Бал пожарныхОригинальное название: Horí, má panenkoГод выхода: 1967Жанр: драма, комедияРежиссер: Милош ФорманВ ролях: Ян Вострчил, Йозеф Шебанек, Josef Valnoha, Frantisek Debelka, Йозеф Колб, Жан Стокл, Вратислав Цермак, Джозеф Ржегоржек, Вацлав Новотны, Франтишек Рейнстейн

О фильме: Много забавных ситуаций ожидает участников бала пожарных: чествование юбиляра, розыгрыш праздничной лотереи, конкурс красоты и даже... настоящий пожар!

Страна: Чехословакия, ИталияПродолжительность: 01:12:50Перевод: Профессиональный (двухгоголосый закадровый) Кармен Видео

ФайлКодек: x264Качество: BDRip (источник: BDRemux)Видео: 1480x1080 (1,370:1), 23.976 fps, 10,8 Mbps Аудио #1: AC-3, 2 ch, 256 kbps (Rus) R5, Кармен Видео Аудио #2: AC-3, 2 ch, 256 kbps (Cze) OriginalСубтитры: Русские, чешские, английские. (PGS)

Скриншоты

MI

Общее Уникальный идентификатор : 239981024752231495232317415426749578661 (0xB48AAA06C026250CA0998C9D0EA33DA5) Полное имя : E:Бал пожарных.1967.BDRip.1080p.Rus.Cze.mkv Формат : Matroska Версия формата : Version 2 Размер файла : 5,77 Гбайт Продолжительность : 1 ч. 12 м. Общий поток : 11,3 Мбит/сек Название фильма : Бал пожарных (Horн, mб panenko) 1967 Дата кодирования : UTC 2013-02-13 01:27:14 Программа кодирования : mkvmerge v5.8.0 ('No Sleep / Pillow') built on Sep 2 2012 15:37:04 Библиотека кодирования : libebml v1.2.3 + libmatroska v1.3.0

Видео Идентификатор : 1 Формат : AVC Формат/Информация : Advanced Video Codec Профиль формата : High@L4.1 Параметр CABAC формата : Да Параметр ReFrames формата : 4 кадра Идентификатор кодека : V_MPEG4/ISO/AVC Продолжительность : 1 ч. 12 м. Битрейт : 10,8 Мбит/сек Ширина : 1480 пикселей Высота : 1080 пикселей Соотношение сторон : 1,370 Режим частоты кадров : Постоянный Частота кадров : 23,976 кадра/сек Цветовое пространство : YUV Субдискретизация насыщенности : 4:2:0 Битовая глубина : 8 бит Тип развёртки : Прогрессивная Бит/(Пиксели*Кадры) : 0.282 Размер потока : 5,39 Гбайт (93%) Библиотека кодирования : x264 core 128 r2216M 198a7ea Настройки программы : cabac=1 / ref=4 / deblock=1:-2:-1 / analyse=0x3:0x133 / me=umh / subme=10 / psy=1 / psy_rd=1.00:0.00 / mixed_ref=1 / me_range=32 / chroma_me=1 / trellis=2 / 8x8dct=1 / cqm=0 / deadzone=21,11 / fast_pskip=0 / chroma_qp_offset=-2 / threads=4 / lookahead_threads=1 / sliced_threads=0 / nr=0 / decimate=0 / interlaced=0 / bluray_compat=0 / constrained_intra=0 / bframes=8 / b_pyramid=2 / b_adapt=2 / b_bias=0 / direct=3 / weightb=1 / open_gop=0 / weightp=2 / keyint=240 / keyint_min=23 / scenecut=40 / intra_refresh=0 / rc=2pass / mbtree=0 / bitrate=10800 / ratetol=1.0 / qcomp=0.60 / qpmin=10 / qpmax=69 / qpstep=4 / cplxblur=20.0 / qblur=0.5 / ip_ratio=1.40 / pb_ratio=1.30 / aq=1:1.00 Язык : Czech Default : Да Forced : Нет

Аудио #1 Идентификатор : 2 Формат : AC-3 Формат/Информация : Audio Coding 3 Расширение режима : CM (complete main) Параметр Endianness формата : Big Идентификатор кодека : A_AC3 Продолжительность : 1 ч. 12 м. Вид битрейта : Постоянный Битрейт : 256 Кбит/сек Каналы : 2 канала Расположение каналов : Front: L R Частота : 48,0 КГц Битовая глубина : 16 бит Метод сжатия : С потерями Размер потока : 133 Мбайт (2%) Заголовок : DVO, AC3 2.0, 256 kbps Язык : Russian Default : Да Forced : Нет

Аудио #2 Идентификатор : 3 Формат : AC-3 Формат/Информация : Audio Coding 3 Расширение режима : CM (complete main) Параметр Endianness формата : Big Идентификатор кодека : A_AC3 Продолжительность : 1 ч. 12 м. Вид битрейта : Постоянный Битрейт : 256 Кбит/сек Каналы : 2 канала Расположение каналов : Front: L R Частота : 48,0 КГц Битовая глубина : 16 бит Метод сжатия : С потерями Размер потока : 133 Мбайт (2%) Заголовок : Original, AC3 2.0, 256 kbps Язык : Czech Default : Нет Forced : Нет

Текст #1 Идентификатор : 4 Формат : PGS Режим смешивания : zlib Идентификатор кодека : S_HDMV/PGS Идентификатор кодека/Информация : The same subtitle format used on BDs/HD-DVDs Язык : Russian Default : Нет Forced : Нет

Текст #2 Идентификатор : 5 Формат : PGS Режим смешивания : zlib Идентификатор кодека : S_HDMV/PGS Идентификатор кодека/Информация : The same subtitle format used on BDs/HD-DVDs Язык : Czech Default : Нет Forced : Нет

Текст #3 Идентификатор : 6 Формат : PGS Режим смешивания : zlib Идентификатор кодека : S_HDMV/PGS Идентификатор кодека/Информация : The same subtitle format used on BDs/HD-DVDs Язык : English Default : Нет Forced : Нет

Меню 00:00:00.000 : en:Chapter 1 00:07:10.054 : en:Chapter 2 00:10:21.746 : en:Chapter 3 00:15:12.453 : en:Chapter 4 00:20:51.541 : en:Chapter 5 00:28:09.688 : en:Chapter 6 00:34:01.456 : en:Chapter 7 00:41:00.416 : en:Chapter 8 00:50:13.051 : en:Chapter 9 00:57:17.767 : en:Chapter 10 01:03:29.680 : en:Chapter 11 01:08:51.085 : en:Chapter 12

x264

x264 [info]: frame I:659 Avg QP:18.86 size:145533 x264 [info]: frame P:20230 Avg QP:20.92 size: 95293 x264 [info]: frame B:83886 Avg QP:23.38 size: 46188

therutor.org

РУТОРГ :: Бал пожарных / Horí, má panenko / The Firemen's Ball (1967) BDRip 1080p ::: Скачать торрент

Информация о фильмеНазвание: Бал пожарныхОригинальное название: Horí, má panenkoГод выхода: 1967Жанр: драма, комедияРежиссер: Милош ФорманВ ролях: Ян Вострчил, Йозеф Шебанек, Josef Valnoha, Frantisek Debelka, Йозеф Колб, Жан Стокл, Вратислав Цермак, Джозеф Ржегоржек, Вацлав Новотны, Франтишек Рейнстейн

О фильме: Много забавных ситуаций ожидает участников бала пожарных: чествование юбиляра, розыгрыш праздничной лотереи, конкурс красоты и даже... настоящий пожар!

Страна: Чехословакия, ИталияПродолжительность: 01:12:50Перевод: Профессиональный (двухгоголосый закадровый) Кармен Видео

ФайлКодек: x264Качество: BDRip (источник: BDRemux)Видео: 1480x1080 (1,370:1), 23.976 fps, 10,8 Mbps Аудио #1: AC-3, 2 ch, 256 kbps (Rus) R5, Кармен Видео Аудио #2: AC-3, 2 ch, 256 kbps (Cze) OriginalСубтитры: Русские, чешские, английские. (PGS)

Скриншоты

MI

Общее Уникальный идентификатор : 239981024752231495232317415426749578661 (0xB48AAA06C026250CA0998C9D0EA33DA5) Полное имя : E:Бал пожарных.1967.BDRip.1080p.Rus.Cze.mkv Формат : Matroska Версия формата : Version 2 Размер файла : 5,77 Гбайт Продолжительность : 1 ч. 12 м. Общий поток : 11,3 Мбит/сек Название фильма : Бал пожарных (Horн, mб panenko) 1967 Дата кодирования : UTC 2013-02-13 01:27:14 Программа кодирования : mkvmerge v5.8.0 ('No Sleep / Pillow') built on Sep 2 2012 15:37:04 Библиотека кодирования : libebml v1.2.3 + libmatroska v1.3.0

Видео Идентификатор : 1 Формат : AVC Формат/Информация : Advanced Video Codec Профиль формата : High@L4.1 Параметр CABAC формата : Да Параметр ReFrames формата : 4 кадра Идентификатор кодека : V_MPEG4/ISO/AVC Продолжительность : 1 ч. 12 м. Битрейт : 10,8 Мбит/сек Ширина : 1480 пикселей Высота : 1080 пикселей Соотношение сторон : 1,370 Режим частоты кадров : Постоянный Частота кадров : 23,976 кадра/сек Цветовое пространство : YUV Субдискретизация насыщенности : 4:2:0 Битовая глубина : 8 бит Тип развёртки : Прогрессивная Бит/(Пиксели*Кадры) : 0.282 Размер потока : 5,39 Гбайт (93%) Библиотека кодирования : x264 core 128 r2216M 198a7ea Настройки программы : cabac=1 / ref=4 / deblock=1:-2:-1 / analyse=0x3:0x133 / me=umh / subme=10 / psy=1 / psy_rd=1.00:0.00 / mixed_ref=1 / me_range=32 / chroma_me=1 / trellis=2 / 8x8dct=1 / cqm=0 / deadzone=21,11 / fast_pskip=0 / chroma_qp_offset=-2 / threads=4 / lookahead_threads=1 / sliced_threads=0 / nr=0 / decimate=0 / interlaced=0 / bluray_compat=0 / constrained_intra=0 / bframes=8 / b_pyramid=2 / b_adapt=2 / b_bias=0 / direct=3 / weightb=1 / open_gop=0 / weightp=2 / keyint=240 / keyint_min=23 / scenecut=40 / intra_refresh=0 / rc=2pass / mbtree=0 / bitrate=10800 / ratetol=1.0 / qcomp=0.60 / qpmin=10 / qpmax=69 / qpstep=4 / cplxblur=20.0 / qblur=0.5 / ip_ratio=1.40 / pb_ratio=1.30 / aq=1:1.00 Язык : Czech Default : Да Forced : Нет

Аудио #1 Идентификатор : 2 Формат : AC-3 Формат/Информация : Audio Coding 3 Расширение режима : CM (complete main) Параметр Endianness формата : Big Идентификатор кодека : A_AC3 Продолжительность : 1 ч. 12 м. Вид битрейта : Постоянный Битрейт : 256 Кбит/сек Каналы : 2 канала Расположение каналов : Front: L R Частота : 48,0 КГц Битовая глубина : 16 бит Метод сжатия : С потерями Размер потока : 133 Мбайт (2%) Заголовок : DVO, AC3 2.0, 256 kbps Язык : Russian Default : Да Forced : Нет

Аудио #2 Идентификатор : 3 Формат : AC-3 Формат/Информация : Audio Coding 3 Расширение режима : CM (complete main) Параметр Endianness формата : Big Идентификатор кодека : A_AC3 Продолжительность : 1 ч. 12 м. Вид битрейта : Постоянный Битрейт : 256 Кбит/сек Каналы : 2 канала Расположение каналов : Front: L R Частота : 48,0 КГц Битовая глубина : 16 бит Метод сжатия : С потерями Размер потока : 133 Мбайт (2%) Заголовок : Original, AC3 2.0, 256 kbps Язык : Czech Default : Нет Forced : Нет

Текст #1 Идентификатор : 4 Формат : PGS Режим смешивания : zlib Идентификатор кодека : S_HDMV/PGS Идентификатор кодека/Информация : The same subtitle format used on BDs/HD-DVDs Язык : Russian Default : Нет Forced : Нет

Текст #2 Идентификатор : 5 Формат : PGS Режим смешивания : zlib Идентификатор кодека : S_HDMV/PGS Идентификатор кодека/Информация : The same subtitle format used on BDs/HD-DVDs Язык : Czech Default : Нет Forced : Нет

Текст #3 Идентификатор : 6 Формат : PGS Режим смешивания : zlib Идентификатор кодека : S_HDMV/PGS Идентификатор кодека/Информация : The same subtitle format used on BDs/HD-DVDs Язык : English Default : Нет Forced : Нет

Меню 00:00:00.000 : en:Chapter 1 00:07:10.054 : en:Chapter 2 00:10:21.746 : en:Chapter 3 00:15:12.453 : en:Chapter 4 00:20:51.541 : en:Chapter 5 00:28:09.688 : en:Chapter 6 00:34:01.456 : en:Chapter 7 00:41:00.416 : en:Chapter 8 00:50:13.051 : en:Chapter 9 00:57:17.767 : en:Chapter 10 01:03:29.680 : en:Chapter 11 01:08:51.085 : en:Chapter 12

x264

x264 [info]: frame I:659 Avg QP:18.86 size:145533 x264 [info]: frame P:20230 Avg QP:20.92 size: 95293 x264 [info]: frame B:83886 Avg QP:23.38 size: 46188

xn--c1avfbif.org

Бал пожарных скачать через торрент » Торрент Кино

«В пожарном отделении города Врхлабы служили добровольцы. В основном они работали на заводе. На танцы они пришли, чтобы хорошо провести время, и веселились от души. Они организовали конкурс красоты для своих дочек. Они провели лотерею. Они пили, и спорили с женами, и вообще были самими собой», - так вспоминал работу над фильмом словацкий режиссер Милош Форман в своей книге «Круговорот». Вот из такой, казалось бы, простенькой фабулы родился один из лучших фильмов чехословацкой «Новой волны» и одна из классических «серьезных» комедий. Форману помогли не только итальянские деньги продюсера Карло Понтии, но и идеи итальянских неореалистов. Актерами были пожарные-добровольцы, которые, отработав полную смену на заводе, к вечеру приходили на съемочную площадку. Они работали без сценария, руководствуясь лишь подсказками режиссера. Так продолжалось «семь немыслимых недель». И так появилась одна из важнейших и принципиальных особенностей «Бала пожарных» - полная натуральность происходящего. Из всего, что задумали сделать на бале пожарные, качественно получилось лишь одно – пьянка. Все остальные начинания будут загублены поголовным воровством, старческим маразмом, забитостью местного населения, сластолюбием и формализмом. Фильм был назван «антисоциалистическим» и стал, по образному выражению Милоша Формана, его «каравеллой в Америку». Кстати, говорят, что картина так понравилась Федерико Феллини, что он решил процитировать одну из сцен (любовное свидание под праздничным столом) в своей «Репетиции оркестра».------------------------------------------В честь празднования 86-го дня рождения капитана пожарной команды, его подопечные готовят пышный бал. Приготавливают подарки, делают поздравительные растяжки, делают сюрпризы и последующий конкурс красоты. Ему собираются преподнести подарок, что в прологе очень комично обсуждается. Далее, собственно на балу, организаторы замечают, что начинают пропадать подарки и угощения. Сначала зельц, затем булка хлеба, далее пропадает торт, несколько подарков и т.д. В самый разгар веселья и проводимого конкурса красоты раздаётся сирена - в ближайшем доме пожар. Однако из-за сутолоки, суматохи и вообще от плохой организованности, дом сгорает до тла... Фильм лаконичен и краток как хорошо рассказанный остроумный анекдот. На самом деле пользователь Tommy2415 так замечательно всё рассказал про фильм, что мне остаётся лишь кое-что добавить и уточнить. Заручившись поддержкой известнейшего европейского продюсера Карло Понти, молодой талантливый чех Милош Форман приступил к съёмкам истории, которую он случайно подглядел на праздненстве в реальной пожарной части. На фоне 'Пражской Весны' ещё более едкой виделась 'насмешка' режиссера, от которой, повторюсь, он открещивается. На самом деле Форман и по сей день утверждает, что он просто решил снять фарсовую историю с элементами абсурда. Что он не подразумевал показать в картине аллюзию на высшее руководство Чехословакии. Тем не менее партийные деятели были крайне недовольны ещё и на почве того факта, что за год-полтора до выхода этого фильма, был крупный коррупционный скандал с одним из министров - Новотным - в Чехословакии, который, как оказалось, нещадно воровал из своего же ведомства. И подозрительное 'начальство' конечно тут же обозвало крамольную поделку режиссера - антинациональной. И когда фильм практически был готов - упомянутое руководство выразило своё крайнее неудовлетворение и продюсер Карло Понти моментально забрал свои деньги из проекта, 'вычеркнул' своё имя из титров и полностью 'открестился' от его создания. И если бы не режиссеры Клод Берри и Франсуа Трюффо - возможно и лежать этому фильму 'на полке' и по сей день. Фильм смотрится как хороший спектакль в театре драмы. Сцены длинные, но запоминающиеся надолго. Персонажи яркие и выписанные. Мне лично увиделось непосредственное влияние итальянского 'неореализма'. Здесь это всё просто на просвет: полупрофессиональные и непрофессиональные актёры, чёткий сюжет, 'документальная' манера съёмки и камерность повествования. По-своему, конечно, фильм зол, едок и очень жесток. По большому счёту и смеяться-то тут не над чем. Однако не зная самых последних сцен фильма, смотришь его как чреду бесконечных гэгов и шуток. Собственно все европейские работы Формана достаточно жёстки по своей сути. Мне данная история напомнила не менее крамольное, хотя не запрещенное выступление Аркадия Райкина, высмеивающего бесконечную бюрократию. Дело происходило во время пожара на даче и хозяин звонил в '01', а те запросили документы из страховой компании и две фотокарточки. Фильм по-своему прекрасен и уникален. Настолько яркого синтеза абсурда, густо-чёрного юмора и жестоких ситуаций я не видел более ни в одном кино.------------------------------------------Наивный, но добрый фильм с заявкой на сатирическую комедию. Немного не дотягивают, но раннему Форману это с лёгкостью прощается. Сюжет прост: пожарные собираются на ежегодный бал, где выбирают королеву красоты. Ещё один повод - 86-летие бывшего начальника пожарной охраны. Особо отмечу сцену выбора участниц конкурса красоты - это единственное, над чем можно посмеяться. Да и в очередной раз продемонстрировать зрителю, что красота - понятие относительное и что не бывает некрасивых женщин. Ну и конечно же не обошлось без пожара. 'Гори, гори ясно, чтобы не погасло'. Примерно так можно описать всё происходящее на экране. Фильм для фанатов творчества Формана. Остальным можно не смотреть, хотя, хронометраж и позволяет ознакомиться с этой картиной без особого вреда для здоровья. И, возможно, даже поднять себе настроение. Форману всё же ставлю плюс, не самый плохой фильм для молодого начинающего режиссёра из Чехии.------------------------------------------Фильм со смыслом, как говорят, в некой степени - фильм в который закладывают загадку. Забыв про загадку, мы начинаем жадно есть, быстро подкинутую нам пищу для ума, разглядываем и цепляемся за очевидное. Безусловно, в фильме присутствуют намеки на социальные темы, но в этом фильме они были как приправа, а в лучшем случае гарнир в большом блюде. Я не хочу затрагивать анализ времени, анализ современного человека и мораль общества, я мало верю, что режиссер (сценарист) именно эти вещи вкладывал в основное.. По крайней мере это отдельная тема. Его сарказм по фильму быстро отвлек внимание, цепляя нас, видя нас. Он внимательно следил за нами с экрана мудрыми глазами «председателя». Жизнь прошла. По мне, основная загадка именно про жизнь старика, и его «горящую душу». А вы знаете, что умираете? Какие у вас ценности под конец жизни?! С самого начала фильма, до самого конца – человек нужен. С первых действий старик находится в особом душевном состоянии, но мы пропускаем это, отвлекаясь. Посмотрите на его ожидание, походку (выход). На что обращает внимание, как смотрит на свою проходящую жизнь (Горящий дом)? Принятие «ценного подарка», его речь при этом?! Главный подарок («пустая коробка») был не более пуст, чем все, что там происходило. Фильм о последних днях (минутах) жизни старика, и думаю, нужно было обратить внимание именно на это..

torrent-kino.org

Бал пожарных cкачать через торрент в HD » Кино-торрент

Сюжет: Много забавных ситуаций ожидает участников бала пожарных: чествование юбиляра, розыгрыш праздничной лотереи, конкурс красоты и даже... настоящий пожар!

В главных ролях: Франтишек Дебелка, Ян Вострчил, Вратислав Цермак, Йозеф Шебанек, Джозеф Ржегоржек, Йозеф Колб, Жан Стокл, Йозеф Валноха

Скриншоты:

Продолжительность: 71 мин. / 01:11

Возрастные ограничения: зрителям, достигшим 12 лет

Это последний фильм, снятый Милошем Форманом в Чехословакии. Создание этого фильма, собственно, стало причиной эмиграции Формана из Чехословакии._______________________________________________________Этот фильм стал первым фильмом Формана, снятым им на цветную плёнку._______________________________________________________Оригинальное название фильма «Hori Ma Panenko» переводят как «Горит, моя барышня...»._______________________________________________________Прототипом бала пожарных стал настоящий бал пожарных, увиденный Форманом и Папоушеком в городке Врхлаби (Хохенэльбе), когда они думали о сценарии нового фильма.

В честь празднования 86-го дня рождения капитана пожарной команды, его подопечные готовят пышный бал. Приготавливают подарки, делают поздравительные растяжки, делают сюрпризы и последующий конкурс красоты. Ему собираются преподнести подарок, что в прологе очень комично обсуждается. Далее, собственно на балу, организаторы замечают, что начинают пропадать подарки и угощения. Сначала зельц, затем булка хлеба, далее пропадает торт, несколько подарков и т.д. В самый разгар веселья и проводимого конкурса красоты раздаётся сирена - в ближайшем доме пожар. Однако из-за сутолоки, суматохи и вообще от плохой организованности, дом сгорает до тла... Фильм лаконичен и краток как хорошо рассказанный остроумный анекдот. На самом деле пользователь Tommy2415 так замечательно всё рассказал про фильм, что мне остаётся лишь кое-что добавить и уточнить. Заручившись поддержкой известнейшего европейского продюсера Карло Понти, молодой талантливый чех Милош Форман приступил к съёмкам истории, которую он случайно подглядел на праздненстве в реальной пожарной части. На фоне 'Пражской Весны' ещё более едкой виделась 'насмешка' режиссера, от которой, повторюсь, он открещивается. На самом деле Форман и по сей день утверждает, что он просто решил снять фарсовую историю с элементами абсурда. Что он не подразумевал показать в картине аллюзию на высшее руководство Чехословакии. Тем не менее партийные деятели были крайне недовольны ещё и на почве того факта, что за год-полтора до выхода этого фильма, был крупный коррупционный скандал с одним из министров - Новотным - в Чехословакии, который, как оказалось, нещадно воровал из своего же ведомства. И подозрительное 'начальство' конечно тут же обозвало крамольную поделку режиссера - антинациональной. И когда фильм практически был готов - упомянутое руководство выразило своё крайнее неудовлетворение и продюсер Карло Понти моментально забрал свои деньги из проекта, 'вычеркнул' своё имя из титров и полностью 'открестился' от его создания. И если бы не режиссеры Клод Берри и Франсуа Трюффо - возможно и лежать этому фильму 'на полке' и по сей день. Фильм смотрится как хороший спектакль в театре драмы. Сцены длинные, но запоминающиеся надолго. Персонажи яркие и выписанные. Мне лично увиделось непосредственное влияние итальянского 'неореализма'. Здесь это всё просто на просвет: полупрофессиональные и непрофессиональные актёры, чёткий сюжет, 'документальная' манера съёмки и камерность повествования. По-своему, конечно, фильм зол, едок и очень жесток. По большому счёту и смеяться-то тут не над чем. Однако не зная самых последних сцен фильма, смотришь его как чреду бесконечных гэгов и шуток. Собственно все европейские работы Формана достаточно жёстки по своей сути. Мне данная история напомнила не менее крамольное, хотя не запрещенное выступление Аркадия Райкина, высмеивающего бесконечную бюрократию. Дело происходило во время пожара на даче и хозяин звонил в '01', а те запросили документы из страховой компании и две фотокарточки. Фильм по-своему прекрасен и уникален. Настолько яркого синтеза абсурда, густо-чёрного юмора и жестоких ситуаций я не видел более ни в одном кино._______________________________________________________Фильм со смыслом, как говорят, в некой степени - фильм в который закладывают загадку. Забыв про загадку, мы начинаем жадно есть, быстро подкинутую нам пищу для ума, разглядываем и цепляемся за очевидное. Безусловно, в фильме присутствуют намеки на социальные темы, но в этом фильме они были как приправа, а в лучшем случае гарнир в большом блюде. Я не хочу затрагивать анализ времени, анализ современного человека и мораль общества, я мало верю, что режиссер (сценарист) именно эти вещи вкладывал в основное.. По крайней мере это отдельная тема. Его сарказм по фильму быстро отвлек внимание, цепляя нас, видя нас. Он внимательно следил за нами с экрана мудрыми глазами «председателя». Жизнь прошла. По мне, основная загадка именно про жизнь старика, и его «горящую душу». А вы знаете, что умираете? Какие у вас ценности под конец жизни?! С самого начала фильма, до самого конца – человек нужен. С первых действий старик находится в особом душевном состоянии, но мы пропускаем это, отвлекаясь. Посмотрите на его ожидание, походку (выход). На что обращает внимание, как смотрит на свою проходящую жизнь (Горящий дом)? Принятие «ценного подарка», его речь при этом?! Главный подарок («пустая коробка») был не более пуст, чем все, что там происходило. Фильм о последних днях (минутах) жизни старика, и думаю, нужно было обратить внимание именно на это.._______________________________________________________Наивный, но добрый фильм с заявкой на сатирическую комедию. Немного не дотягивают, но раннему Форману это с лёгкостью прощается. Сюжет прост: пожарные собираются на ежегодный бал, где выбирают королеву красоты. Ещё один повод - 86-летие бывшего начальника пожарной охраны. Особо отмечу сцену выбора участниц конкурса красоты - это единственное, над чем можно посмеяться. Да и в очередной раз продемонстрировать зрителю, что красота - понятие относительное и что не бывает некрасивых женщин. Ну и конечно же не обошлось без пожара. 'Гори, гори ясно, чтобы не погасло'. Примерно так можно описать всё происходящее на экране. Фильм для фанатов творчества Формана. Остальным можно не смотреть, хотя, хронометраж и позволяет ознакомиться с этой картиной без особого вреда для здоровья. И, возможно, даже поднять себе настроение. Форману всё же ставлю плюс, не самый плохой фильм для молодого начинающего режиссёра из Чехии.

kino-torrent.com


Смотрите также